Сквозь тернии / If There Be Thorns (Нэнси Сэвока / Nancy Savoca) [2015, Канада, США, Психологическая драма, трагедия, WEB-DLRip] VO

Ответить на тему
 
Автор Сообщение

user ®

Стаж: 7 лет 7 месяцев

Сообщений: 20008

Пост Пост: #1 от 18-Ноя-2015 04:24

[Цитировать]

Сквозь тернии / If There Be Thorns
Совместное производство: Канада, США
Жанр: Психологическая драма, трагедия
Год выпуска: 2015
Продолжительность: 01:40:02
Перевод: Одноголосый закадровый
Cубтитры: отсутствуют
Оригинальная аудиодорожка: нет
Режиссёр: Нэнси Сэвока / Nancy Savoca
Актёры: Хэзер Грэм, Рейчал Карпани, Джейсон Льюис, Мэйсон Кук, МакКензи Грэй, Джедидайя Гудакр, Эмили Теннант, Кристин Липпа, Глайнис Дейвис, Вина Суд, и др.
Аннотация: Кэтрин и Кристофер Доллангенджеры живут счастливой семейной жизнью со своими детьми, которые не подозревают о том, что у родителей могут быть неафишируемые тайны... Однажды в соседний дом переезжает таинственная пожилая женщина - бабушка божий одуванчик, она сближается с их младшим сыном, после чего у него начинается странное поведение по отношению к родителям... Когда Кристофер увидел таинственную соседку, с ужасом понял, что это его мать... Рано или поздно всё тайное становится явным, вот и теперь, все семейные тайны раскрываются в форме трагической кульминации...

Качество видео: WEB-DLRip
Формат видео: AVI
Video: 688x384 (1.79:1), 23.976 fps, XviD build 65 ~907 kbps avg, 0.14 bit/pixel
Audio: 48 kHz, MPEG Layer 3, 2 ch, ~128.00 kbps avg
AviInfo
File: If_There_Be_Thorns_2015_WEB-DLRip_[***].aviTitle: If_There_Be_Thorns_2015_WEB-DLRip_[***]Author: OGORODNIKOFFFCopyleft: rutracker.orgGenre: Драма, трагедияCategory: ТелефильмComment: Дата рипа 17 ноября 2015 годаFilesize: 747.68 Mb ( 784 003 072 bytes )Play length: 01:40:02.961 (143927 frames)Subtitles: Not PresentVideo: 688x384 (1.79:1), 23.976 fps, XviD build 65 ~907 kbps avg, 0.14 bit/pixelAudio: 48 kHz, MPEG Layer 3, 2 ch, ~128.00 kbps avg
MediaInfo
ОбщееПолное имя : V:\If_There_Be_Thorns_2015_WEB-DLRip_[***].aviФормат : AVIФормат/Информация : Audio Video InterleaveРазмер файла : 748 МбайтПродолжительность : 1 ч. 40 м.Общий поток : 1045 Кбит/секНазвание фильма : If_There_Be_Thorns_2015_WEB-DLRip_[***]Режиссёр : OGORODNIKOFFFЖанр : Драма, трагедияПрограмма кодирования : VirtualDubModRus 1.5.10.2 (build 2542/release)Библиотека кодирования : VirtualDubMod build 2542/releaseФормат оригинала/Имя : ТелефильмПравообладатель : rutracker.orgПримечание : Дата рипа 17 ноября 2015 года
ВидеоИдентификатор : 0Формат : MPEG-4 VisualПрофиль формата : Advanced Simple@L5Параметр BVOP формата : 1Параметр QPel формата : НетПараметр GMC формата : Без точки переходаПараметр матрицы формата : Default (MPEG)Идентификатор кодека : DX50Идентификатор кодека/Подсказка : DivX 5Продолжительность : 1 ч. 40 м.Битрейт : 908 Кбит/секШирина : 688 пикселейВысота : 384 пикселяСоотношение сторон : 16:9Частота кадров : 23,976 кадра/секЦветовое пространство : YUVСубдискретизация насыщенности : 4:2:0Битовая глубина : 8 битТип развёртки : ПрогрессивнаяМетод сжатия : С потерямиБит/(Пиксели*Кадры) : 0.143Размер потока : 649 Мбайт (87%)Библиотека кодирования : XviD 65
АудиоИдентификатор : 1Формат : MPEG AudioВерсия формата : Version 1Профиль формата : Layer 3Режим : Joint stereoИдентификатор кодека : 55Идентификатор кодека/Подсказка : MP3Продолжительность : 1 ч. 40 м.Вид битрейта : ПостоянныйБитрейт : 128 Кбит/секКаналы : 2 каналаЧастота : 48,0 КГцМетод сжатия : С потерямиРазмер потока : 91,6 Мбайт (12%)Выравнивание : Соединение по промежуткамПродолжительность промежутка : 42 мс. (1,00 видеокадр)Время предзагрузки промежутка : 504 мс.Библиотека кодирования : LAME3.99rНастройки программы : -m j -V 4 -q 2 -lowpass 17 -b 128
Скриншот c названием фильма Скриншоты Время раздачи - по возможности.
Скачать

Скачать торрент!

Как скачивать? · Что такое торрент? · Рейтинг и ограничения

Сайт не распространяет и не хранит электронные версии произведений, а лишь предоставляет доступ к создаваемому пользователями каталогу ссылок на торрент-файлы, которые содержат только списки хеш-сумм

[Профиль] [ЛС]
Показать сообщения:    
Ответить на тему

Текущее время: Сегодня 12:04

Часовой пояс: GMT + 4



Вы не можете начинать темы
Вы не можете отвечать на сообщения
Вы не можете редактировать свои сообщения
Вы не можете удалять свои сообщения
Вы не можете голосовать в опросах
Вы не можете прикреплять файлы к сообщениям
Вы не можете скачивать файлы