Сны (Александр Бородянский, Карен Шахназаров) [1993, комедия, BDRip-AVC]

Ответить на тему
 
Автор Сообщение

user ®

Стаж: 7 лет 7 месяцев

Сообщений: 20008

Пост Пост: #1 от 18-Ноя-2015 01:18

[Цитировать]

Сны
Жанр: комедия
Год выпуска: 1993
Продолжительность: 01:18:53
Режиссёр: Александр Бородянский, Карен Шахназаров
В ролях: Олег Басилашвили, Амалия Мордвинова, Армен Джигарханян, Аркадий Идес, Пётр Меркурьев, Валерий Носик, Алексей Жарков, Юрий Шерстнев, Андрей Ростоцкий, Андрей Вертоградов...
Описание: Аристократка девятнадцатого века, Графиня Призорова, живет в Москве. Она богата, молода, но с некоторых пор ей стали сниться очень странные сны. Будто она не графиня, а уборщица Маша Степанова, работает в Москве, в 1993 году, в столовой N 9. Она лимитчица из глубинки и живет в общежитии. Не найдя объяснений столь странным сновидениям, графиня обращается к доктору.
Сэмпл: http://multi-up.com/1075751
Качество видео: BDRip-AVC [url=http://***/forum/viewtopic.php?t=4577743]Исходник[/url]
Формат видео: MKV
Видео: 896x648 (1.383), 23.976 fps, AVC, ~2200 Kbps, 0.158 bits/pixel
Аудио: 48.0 KHz, AC3, 6 ch, 448 Kbps

Log
avs4x264.exe: -L x264_64.exe --pass 2 --bitrate 2200 --preset medium --ref 10 --deblock -1:-1 --merange 32 --bframes 10 --direct auto --b-adapt 2 --trellis 2 --no-fast-pskip --psy-rd 1.00:0.10 --partitions all --subme 10 --me umh --rc-lookahead 50 --sar 1:1 --stats
raw [info]: 896x648p 1:1 @ 24000/1001 fps (cfr)
x264 [info]: using SAR=1/1
x264 [info]: using cpu capabilities: MMX2 SSE2Fast LZCNT
x264 [info]: profile High, level 4.0
x264 [info]: frame I:604 Avg QP:15.58 size:107902
x264 [info]: frame P:20423 Avg QP:18.67 size: 34746
x264 [info]: frame B:92454 Avg QP:21.74 size: 5698
x264 [info]: consecutive B-frames: 0.9% 0.9% 3.7% 6.3% 9.9% 64.3% 4.6% 0.9% 6.0% 0.7% 2.0%
x264 [info]: mb I I16..4: 7.1% 69.0% 23.9%
x264 [info]: mb P I16..4: 0.4% 4.6% 0.7% P16..4: 41.4% 27.5% 21.0% 0.9% 0.3% skip: 3.2%
x264 [info]: mb B I16..4: 0.0% 0.2% 0.0% B16..8: 41.8% 8.9% 2.5% direct: 3.0% skip:43.5% L0:45.1% L1:46.9% BI: 8.0%
x264 [info]: 8x8 transform intra:77.4% inter:59.5%
x264 [info]: direct mvs spatial:98.6% temporal:1.4%
x264 [info]: coded y,uvDC,uvAC intra: 92.2% 88.0% 69.1% inter: 19.7% 17.4% 4.3%
x264 [info]: i16 v,h,dc,p: 35% 13% 20% 32%
x264 [info]: i8 v,h,dc,ddl,ddr,vr,hd,vl,hu: 16% 8% 9% 9% 12% 12% 11% 11% 11%
x264 [info]: i4 v,h,dc,ddl,ddr,vr,hd,vl,hu: 15% 8% 5% 9% 13% 14% 12% 12% 12%
x264 [info]: i8c dc,h,v,p: 44% 20% 22% 14%
x264 [info]: Weighted P-Frames: Y:2.1% UV:0.6%
x264 [info]: ref P L0: 37.9% 11.7% 21.2% 6.1% 7.2% 3.8% 5.1% 2.0% 2.9% 2.0% 0.2% 0.0%
x264 [info]: ref B L0: 69.0% 13.7% 6.2% 3.5% 2.4% 2.3% 1.8% 0.8% 0.3%
x264 [info]: ref B L1: 92.9% 7.1%
x264 [info]: kb/s:2200.03
x264 [total]: encoded 113481 frames, 8.19 fps, 2200.03 kb/s
MediaInfo
General
Unique ID : 230668043114263365115472436652673995516 (0xAD890C94BF30915DB3795485008E12FC)
Complete name : C:\Сны.mkv
Format : Matroska
Format version : Version 4 / Version 2
File size : 1.46 GiB
Duration : 1h 18mn
Overall bit rate : 2 650 Kbps
Encoded date : UTC 2015-11-16 16:46:27
Writing application : mkvmerge v8.4.0 ('A better way to fly') 64bit
Writing library : libebml v1.3.1 + libmatroska v1.4.2
DURATION : 01:18:53.088000000
NUMBER_OF_FRAMES : 147909
NUMBER_OF_BYTES : 265052928
_STATISTICS_WRITING_APP : mkvmerge v8.4.0 ('A better way to fly') 64bit
_STATISTICS_WRITING_DATE_UT : 2015-11-16 16:46:27
_STATISTICS_TAGS : BPS DURATION NUMBER_OF_FRAMES NUMBER_OF_BYTES
Video
ID : 1
Format : AVC
Format/Info : Advanced Video Codec
Format profile : High@L4
Format settings, CABAC : Yes
Format settings, ReFrames : 10 frames
Codec ID : V_MPEG4/ISO/AVC
Duration : 1h 18mn
Bit rate : 2 200 Kbps
Width : 896 pixels
Height : 648 pixels
Display aspect ratio : 1.383
Frame rate mode : Constant
Frame rate : 23.976 fps
Color space : YUV
Chroma subsampling : 4:2:0
Bit depth : 8 bits
Scan type : Progressive
Bits/(Pixel*Frame) : 0.158
Stream size : 1.18 GiB (81%)
Writing library : x264 core 148 r2638 7599210
Encoding settings : cabac=1 / ref=10 / deblock=1:-1:-1 / analyse=0x3:0x133 / me=umh / subme=10 / psy=1 / psy_rd=1.00:0.10 / mixed_ref=1 / me_range=32 / chroma_me=1 / trellis=2 / 8x8dct=1 / cqm=0 / deadzone=21,11 / fast_pskip=0 / chroma_qp_offset=-3 / threads=6 / lookahead_threads=1 / sliced_threads=0 / nr=0 / decimate=1 / interlaced=0 / bluray_compat=0 / constrained_intra=0 / bframes=10 / b_pyramid=2 / b_adapt=2 / b_bias=0 / direct=3 / weightb=1 / open_gop=0 / weightp=2 / keyint=250 / keyint_min=23 / scenecut=40 / intra_refresh=0 / rc_lookahead=50 / rc=2pass / mbtree=1 / bitrate=2200 / ratetol=1.0 / qcomp=0.60 / qpmin=0 / qpmax=69 / qpstep=4 / cplxblur=20.0 / qblur=0.5 / ip_ratio=1.40 / aq=1:1.00
Language : Russian
Default : Yes
Forced : No
Audio
ID : 2
Format : AC-3
Format/Info : Audio Coding 3
Mode extension : CM (complete main)
Format settings, Endianness : Big
Codec ID : A_AC3
Duration : 1h 18mn
Bit rate mode : Constant
Bit rate : 448 Kbps
Channel(s) : 6 channels
Channel positions : Front: L C R, Side: L R, LFE
Sampling rate : 48.0 KHz
Compression mode : Lossy
Stream size : 253 MiB (17%)
Language : Russian
Default : Yes
Forced : No
Menu
00:00:00.000 : :Chapter 01
00:06:55.414 : :Chapter 02
00:12:14.358 : :Chapter 03
00:19:57.196 : :Chapter 04
00:27:53.004 : :Chapter 05
00:33:34.470 : :Chapter 06
00:40:53.451 : :Chapter 07
00:44:22.117 : :Chapter 08
00:51:59.199 : :Chapter 09
00:56:07.906 : :Chapter 10
01:03:03.988 : :Chapter 11
01:08:28.104 : :Chapter 12
Скриншоты
Скачать

Скачать торрент!

Как скачивать? · Что такое торрент? · Рейтинг и ограничения

Сайт не распространяет и не хранит электронные версии произведений, а лишь предоставляет доступ к создаваемому пользователями каталогу ссылок на торрент-файлы, которые содержат только списки хеш-сумм

[Профиль] [ЛС]
Показать сообщения:    
Ответить на тему

Текущее время: Сегодня 19:20

Часовой пояс: GMT + 4



Вы не можете начинать темы
Вы не можете отвечать на сообщения
Вы не можете редактировать свои сообщения
Вы не можете удалять свои сообщения
Вы не можете голосовать в опросах
Вы не можете прикреплять файлы к сообщениям
Вы не можете скачивать файлы