Мой лучший враг / Min Bedste Fjende (Оливер Уссинг / Oliver Ussing) [2010, Дания, Драма, DVDRip] VO (Вячеслав Прошин) + original dan

Ответить на тему
 
Автор Сообщение

user ®

Стаж: 7 лет 7 месяцев

Сообщений: 20008

Пост Пост: #1 от 19-Дек-2010 05:13

[Цитировать]

Мой лучший враг / Min Bedste Fjende
Страна: Дания
Жанр: Драма
Год выпуска: 2010
Продолжительность: 01:28:54
Перевод: Любительский (одноголосый закадровый) Вячеслав Прошин
Cубтитры: нет
Оригинальная аудиодорожка: датский
Режиссер: Оливер Уссинг / Oliver Ussing
В ролях: Николай Стервинг Хансен, Катрин Альфредсдоттир, Расмус Линд Рубин, Йонас Эйльсков Йенсен, Бенжамин Мольсинг, Дэймон Энтони Филлипс Джерико, Рикке Луис Андерссон, Катрин Бек, Ким Бодня, Йонас Херуп, Коко Хьярдемаль, Кетт Кадагюс, Ида Кортбек, Дар Салим, Клара Брун Сандбю и др.
Описание: Альф и Токке привыкли к издевательствам более сильных и наглых одноклассников. Но когда-нибудь и у самых забитых и нерешительных наступает предел. Вдохновившись японской мангой про героя Никколо, прототипом которого стал коварный итальянец Никколо Макиавелли со своими тайными союзами и зловещими интригами, пацаны начинают расправляться со своими обидчиками...
Фильм снят по роману Торстена Томсена.-Релиз: Кинопортал Близзард
Перевод: Алексей Простотак aka kukuy999
Озвучание: Вячеслав Прошин-Сэмпл: http://multi-up.com/393363
Качество видео: DVDRip
Формат видео: AVI
Видео: Xvid 704x278 25.00fps 1612Kbps
Аудио 1: Dolby AC3 48000Hz 6ch 448kbps (русский)
Аудио 2: Dolby AC3 48000Hz 6ch 448kbps (датский)

MediaInfo

General
Complete name : I:\Мой лучший враг\Min.Bedste.Fjende.DVDRip.rus.dan.avi
Format : AVI
Format/Info : Audio Video Interleave
File size : 1.57 GiB
Duration : 1h 28mn
Overall bit rate : 2 522 Kbps
Writing application : VirtualDubModRus 1.5.10.2 (build 2540/release)
Writing library : VirtualDubMod build 2540/release
Video
ID : 0
Format : MPEG-4 Visual
Format profile : Simple@L3
Format settings, BVOP : No
Format settings, QPel : No
Format settings, GMC : No warppoints
Format settings, Matrix : Default (H.263)
Codec ID : XVID
Codec ID/Hint : XviD
Duration : 1h 28mn
Bit rate : 1 612 Kbps
Width : 704 pixels
Height : 278 pixels
Display aspect ratio : 2.532
Frame rate : 25.000 fps
Color space : YUV
Chroma subsampling : 4:2:0
Bit depth : 8 bits
Scan type : Progressive
Bits/(Pixel*Frame) : 0.329
Stream size : 1.00 GiB (64%)
Writing library : XviD 1.1.2 (UTC 2006-11-01)
Audio #1
ID : 1
Format : AC-3
Format/Info : Audio Coding 3
Mode extension : CM (complete main)
Codec ID : 2000
Duration : 1h 28mn
Bit rate mode : Constant
Bit rate : 448 Kbps
Channel(s) : 6 channels
Channel positions : Front: L C R, Side: L R, LFE
Sampling rate : 48.0 KHz
Stream size : 285 MiB (18%)
Alignment : Split accross interleaves
Interleave, duration : 40 ms (1.00 video frame)
Interleave, preload duration : 500 ms
Audio #2
ID : 2
Format : AC-3
Format/Info : Audio Coding 3
Mode extension : CM (complete main)
Codec ID : 2000
Duration : 1h 28mn
Bit rate mode : Constant
Bit rate : 448 Kbps
Channel(s) : 6 channels
Channel positions : Front: L C R, Side: L R, LFE
Sampling rate : 48.0 KHz
Stream size : 285 MiB (18%)
Alignment : Split accross interleaves
Interleave, duration : 40 ms (1.00 video frame)
Interleave, preload duration : 500 ms

Скриншот c названием фильма

Скриншоты

Скачать

Скачать торрент!

Как скачивать? · Что такое торрент? · Рейтинг и ограничения

Сайт не распространяет и не хранит электронные версии произведений, а лишь предоставляет доступ к создаваемому пользователями каталогу ссылок на торрент-файлы, которые содержат только списки хеш-сумм

[Профиль] [ЛС]
Показать сообщения:    
Ответить на тему

Текущее время: Сегодня 00:19

Часовой пояс: GMT + 4



Вы не можете начинать темы
Вы не можете отвечать на сообщения
Вы не можете редактировать свои сообщения
Вы не можете удалять свои сообщения
Вы не можете голосовать в опросах
Вы не можете прикреплять файлы к сообщениям
Вы не можете скачивать файлы