Бойцы из Лос-Анджелеса / Территория Ниндзя / L.A. Streetfighters / Los Angeles Streetfight (Ву-Санг Парк / Woo-sang Park) [1985, США, Корея Южная, боевик, драма, HDTV 1080i] DVO (НТВ+) + Original Eng

Ответить на тему
 
Автор Сообщение

user ®

Стаж: 7 лет 7 месяцев

Сообщений: 20008

Пост Пост: #1 от 17-Ноя-2015 00:27

[Цитировать]

Бойцы из Лос-Анджелеса / Территория Ниндзя / L.A. Streetfighters / Los Angeles Streetfight
Страна: США, Корея Южная
Жанр: боевик, драма
Год выпуска: 1985
Продолжительность: 01:18:45
Перевод: Профессиональный (двухголосый закадровый) НТВ+
Cубтитры: нет
Оригинальная аудиодорожка: английский
Режиссер: Ву-Санг Парк / Woo-sang Park
В ролях: Джун Чонг, Филлип Ри, Джеймс Лью, Розанна Кинг, Билл Уоллас, Кен Нагаяма, Фрэнк Мармолехо, Дорин Мукама, Марк Хикс
Описание: Большой город — это всегда борьба за власть, всегда выяснение отношений, всегда раздел территории. Тяжело жить там, где пересекаются интересы противоборствующих группировок и где адский кулак каратиста сталкивается с бритвенноострым самурайским мечом, а быстрее выстрела из пистолета италоамериканского мафиози лишь прыжок ниндзи…
Доп. информация: За предоставленный релиз спасибо xfiles.
Релиз
Сэмпл: https://yadi.sk/i/AAwEheHBkUafH
Тип релиза: HDTV 1080i
Контейнер: TS
Видео: 1920x1080 (16:9), 25.000 fps, AVC, ~6706 Kbps, 0.129 bits/pixel
Аудио 1: Russian, 48.0 KHz, MPEG-1 Audio layer 2, 2 ch, 192 Kbps
Аудио 2: English, 48.0 KHz, MPEG-1 Audio layer 2, 2 ch, 192 Kbps
MediaInfo
L.A. Streetfighters 1985 MGMHD 1080i.rus.eng.ts
Format : MPEG-TS
File size : 4.10 GiB
Duration : 1h 18mn
Overall bit rate mode : Variable
Overall bit rate : 7 462 Kbps
Maximum Overall bit rate : 35.5 Mbps
Video
ID : 4113 (0x1011)
Menu ID : 1 (0x1)
Format : AVC
Format/Info : Advanced Video Codec
Format profile : Main@L4.0
Format settings, CABAC : Yes
Format settings, ReFrames : 4 frames
Codec ID : 27
Duration : 1h 18mn
Bit rate : 6 706 Kbps
Width : 1 920 pixels
Height : 1 080 pixels
Display aspect ratio : 16:9
Frame rate : 25.000 fps
Standard : Component
Color space : YUV
Chroma subsampling : 4:2:0
Bit depth : 8 bits
Scan type : Interlaced
Scan order : Top Field First
Bits/(Pixel*Frame) : 0.129
Stream size : 3.69 GiB (90%)
Color primaries : BT.709
Transfer characteristics : BT.709
Matrix coefficients : BT.709
Audio #1
ID : 4352 (0x1100)
Menu ID : 1 (0x1)
Format : MPEG Audio
Format version : Version 1
Format profile : Layer 2
Codec ID : 4
Duration : 1h 18mn
Bit rate mode : Constant
Bit rate : 192 Kbps
Channel(s) : 2 channels
Sampling rate : 48.0 KHz
Compression mode : Lossy
Stream size : 108 MiB (3%)
Language : Russian
Audio #2
ID : 4353 (0x1101)
Menu ID : 1 (0x1)
Format : MPEG Audio
Format version : Version 1
Format profile : Layer 2
Codec ID : 4
Duration : 1h 18mn
Bit rate mode : Constant
Bit rate : 192 Kbps
Channel(s) : 2 channels
Sampling rate : 48.0 KHz
Compression mode : Lossy
Stream size : 108 MiB (3%)
Language : English
Скриншоты
Скачать

Скачать торрент!

Как скачивать? · Что такое торрент? · Рейтинг и ограничения

Сайт не распространяет и не хранит электронные версии произведений, а лишь предоставляет доступ к создаваемому пользователями каталогу ссылок на торрент-файлы, которые содержат только списки хеш-сумм

[Профиль] [ЛС]
Показать сообщения:    
Ответить на тему

Текущее время: Сегодня 21:56

Часовой пояс: GMT + 4



Вы не можете начинать темы
Вы не можете отвечать на сообщения
Вы не можете редактировать свои сообщения
Вы не можете удалять свои сообщения
Вы не можете голосовать в опросах
Вы не можете прикреплять файлы к сообщениям
Вы не можете скачивать файлы