Чужое лицо (Алексей Карелин) [2015, Россия, мелодрама, HDTVRip]

Ответить на тему
 
Автор Сообщение

user ®

Стаж: 7 лет 7 месяцев

Сообщений: 20008

Пост Пост: #1 от 16-Ноя-2015 15:09

[Цитировать]

Чужое лицоСтрана: Россия, Паламеда продакшн, Продюсерский центр "Фабула"
Год выхода: 2015
Жанр: мелодрама
Продолжительность: 01:30:11-Режиссер: Алексей Карелин-В ролях: Полина Стрельникова (Сыркина), Александр Лымарев,
Марина Денисова, Игорь Денисов, Светлана Кожемякина, Александр Гиренок, Ольга Скворцова, Василий Бойдак, Александр Павлов
--Главная героиня Мария — провинциальная актриса, мечтающая о большой сцене. Но на руках у Маши больной брат и нет возможности строить карьеру.
Однажды она получает весьма странное предложение. Маша должна сыграть роль другого человека, но не в кино, и не в театре, а в жизни! За большие деньги,
которые ей заплатят за исполнение этой роли, Маша должна будет примерить на себя чужое лицо в буквальном смысле — сделать пластическую операцию,
чтобы стать похожей на погибшую женщину. Маша, не задумываясь о последствиях, принимает предложение.
-
-
Сэмпл: http://sendfile.su/1174149
Качество видео: HDTVRip
Исходник: HDTVRip 1080p
Формат видео: AVI
Видео: XviD (1.2.2) 1024kbps 688x384 25.000fps
Аудио: MP3 128kbps 2ch 16bit 48000khz


MediaInfo
MediaInfoLib - v0.7.62
General
Complete name : F:\Мои раздачи 2\Чужое лицо. 2015г. HDTVRip. - kontarik81.avi
Format : AVI
Format/Info : Audio Video Interleave
File size : 749 MiB
Duration : 1h 30mn
Overall bit rate : 1 161 Kbps
Writing application : VirtualDubMod 1.5.10.3 | www.virtualdub-fr.org || (build 2550/release)
Writing library : VirtualDubMod build 2550/release
Video
ID : 0
Format : MPEG-4 Visual
Format profile : Advanced Simple@L5
Format settings, BVOP : 1
Format settings, QPel : No
Format settings, GMC : No warppoints
Format settings, Matrix : Default (H.263)
Codec ID : XVID
Codec ID/Hint : XviD
Duration : 1h 30mn
Bit rate : 1 023 Kbps
Width : 688 pixels
Height : 384 pixels
Display aspect ratio : 16:9
Frame rate : 25.000 fps
Color space : YUV
Chroma subsampling : 4:2:0
Bit depth : 8 bits
Scan type : Progressive
Compression mode : Lossy
Bits/(Pixel*Frame) : 0.155
Stream size : 660 MiB (88%)
Writing library : XviD 1.2.1 (UTC 2008-12-04)
Audio
ID : 1
Format : MPEG Audio
Format version : Version 1
Format profile : Layer 3
Mode : Joint stereo
Mode extension : MS Stereo
Codec ID : 55
Codec ID/Hint : MP3
Duration : 1h 30mn
Bit rate mode : Constant
Bit rate : 128 Kbps
Channel(s) : 2 channels
Sampling rate : 48.0 KHz
Compression mode : Lossy
Stream size : 82.6 MiB (11%)
Alignment : Aligned on interleaves
Interleave, duration : 40 ms (1.00 video frame)
Interleave, preload duration : 504 ms
Writing library : LAME3.99r
Encoding settings : -m j -V 4 -q 2 -lowpass 17 -b 128
Скриншот c названием фильма Скриншоты
Скачать

Скачать торрент!

Как скачивать? · Что такое торрент? · Рейтинг и ограничения

Сайт не распространяет и не хранит электронные версии произведений, а лишь предоставляет доступ к создаваемому пользователями каталогу ссылок на торрент-файлы, которые содержат только списки хеш-сумм

[Профиль] [ЛС]
Показать сообщения:    
Ответить на тему

Текущее время: Сегодня 12:54

Часовой пояс: GMT + 4



Вы не можете начинать темы
Вы не можете отвечать на сообщения
Вы не можете редактировать свои сообщения
Вы не можете удалять свои сообщения
Вы не можете голосовать в опросах
Вы не можете прикреплять файлы к сообщениям
Вы не можете скачивать файлы