Любовник (Валерий Тодоровский) [2002, драма, DVB]

Ответить на тему
 
Автор Сообщение

user ®

Стаж: 7 лет 7 месяцев

Сообщений: 20008

Пост Пост: #1 от 16-Ноя-2015 15:09

[Цитировать]

Любовник
Жанр: драма
Год выпуска: 2002
Продолжительность: 01:37:51
Режиссёр: Валерий Тодоровский
В ролях: Олег Янковский, Сергей Гармаш, Вера Воронкова, Евгений Косырев, Андрей Смирнов, Галина Кашковская, Юлия Рытикова, Елена Ласковая, Александр Лукаш, Владимир Юматов
Описание: Внезапная смерть жены и случайно найдённое письмо становятся причиной неприятного открытия - оказывается, у вполне благополучной семейной жизни была изнанка. И всё, что теперь занимает главного героя - выяснение подробностей...как, почему и зачем внешне счастливая женщина изменяла на протяжении всех лет совместной жизни.
Доп. информация: Запись потока *.ts со спутника Экспресс АМ7, 40° в.д., ремукс в *.mkv программой VideoReDo.
Качество видео: DVB
Формат видео: MKV
Видео: MPEG Video, 720(768)x576 (4:3), 25,000 кадров/сек, 5249 Кбит/сек
Аудио: MPEG Audio, 48,0 КГц, 256 Кбит/сек, 2 канала
Сравнение
[url=http://***/forum/viewtopic.php?t=751522]http://***/forum/viewtopic.php?t=751522[/url]
http://screenshotcomparison.com/comparison/150723/
MediaInfo
Общее
Уникальный идентификатор : 154028179704371359898759028024572973205 (0x73E0BF945691BA054515D204F5651095)
Полное имя : T:\MPG\ЛЮБОВНИК (Rossiya 40).mkv
Формат : Matroska
Версия формата : Version 2
Размер файла : 3,79 Гбайт
Продолжительность : 1 ч. 37 м.
Режим общего битрейта : Переменный
Общий поток : 5549 Кбит/сек
Программа кодирования : Lavf52.64.2
Библиотека кодирования : Lavf52.64.2
Видео
Идентификатор : 1
Формат : MPEG Video
Версия формата : Version 2
Профиль формата : Main@Main
Параметр BVOP формата : Нет
Параметр матрицы формата : Выборочная
Идентификатор кодека : V_MPEG2
Идентификатор кодека/Информация : MPEG 1 or 2 Video
Продолжительность : 1 ч. 37 м.
Вид битрейта : Переменный
Битрейт : 5182 Кбит/сек
Максимальный битрейт : 15,0 Мбит/сек
Ширина : 720 пикселей
Высота : 576 пикселей
Соотношение сторон : 4:3
Соотношение сторон в оригинале : 4:3
Режим частоты кадров : Постоянный
Частота кадров : 25,000 кадров/сек
Стандарт вещания : PAL
Цветовое пространство : YUV
Субдискретизация насыщенности : 4:2:0
Битовая глубина : 8 бит
Тип развёртки : Чересстрочная
Порядок развёртки : Верхнее поле первое
Метод сжатия : С потерями
Бит/(Пиксели*Кадры) : 0.500
Временной код первого кадра : 00:00:00:00
Оригинал временного кода : Group of pictures header
Размер потока : 3,54 Гбайт (93%)
Default : Да
Forced : Нет
Аудио
Идентификатор : 2
Формат : MPEG Audio
Версия формата : Version 1
Профиль формата : Layer 2
Идентификатор кодека : A_MPEG/L2
Идентификатор кодека/Подсказка : MP2
Продолжительность : 1 ч. 37 м.
Вид битрейта : Постоянный
Битрейт : 256 Кбит/сек
Каналы : 2 канала
Частота : 48,0 КГц
Метод сжатия : С потерями
Задержка видео : -1 м. 5 с.
Размер потока : 179 Мбайт (5%)
Язык : English
Default : Да
Forced : Нет
Скриншот c названием фильма Скриншоты
Скачать

Скачать торрент!

Как скачивать? · Что такое торрент? · Рейтинг и ограничения

Сайт не распространяет и не хранит электронные версии произведений, а лишь предоставляет доступ к создаваемому пользователями каталогу ссылок на торрент-файлы, которые содержат только списки хеш-сумм

[Профиль] [ЛС]
Показать сообщения:    
Ответить на тему

Текущее время: Сегодня 02:27

Часовой пояс: GMT + 4



Вы не можете начинать темы
Вы не можете отвечать на сообщения
Вы не можете редактировать свои сообщения
Вы не можете удалять свои сообщения
Вы не можете голосовать в опросах
Вы не можете прикреплять файлы к сообщениям
Вы не можете скачивать файлы