Старая пластинка (Вячеслав Котеночкин) [1982, СССР, Музыкальный, TVRip]

Ответить на тему
 
Автор Сообщение

user ®

Стаж: 7 лет 7 месяцев

Сообщений: 20008

Пост Пост: #1 от 16-Ноя-2015 12:03

[Цитировать]

Старая пластинка
Страна: СССР
Жанр: Музыкальный
Продолжительность: 00:14:38
Год выпуска: 1982
Перевод: Не требуется
Русские субтитры: Нет
Режиссёр: Вячеслав Котеночкин
Роли озвучивали: Леонид Утесов
Описание: Рисованный мультипликационный фильм режиссёра Вячеслава Котёночкина на песни Леонида Утёсова. Выщел на экраны кинотеатров через год после смерти Леонида Осиповича как дань памяти.

Релиз:

Качество: TVRip
Формат: MKV
Видео: AVC, 1452 kbps, 688 x 562 @ 750 x 562, 25 fps
Аудио: MP2, 160 kbps, 2 ch, 48 kHz
Субтитры: Отсутствуют
Подробные технические данные
ОбщееУникальный идентификатор : 182300077352620418342529012967044037898 (0x8925B7C0AD0CE2A6A7E73762EB143D0A)Полное имя : D:\00-Старая пластинка\Старая пластинка-TVRip-MG.mkvФормат : MatroskaВерсия формата : Version 4 / Version 2Размер файла : 169 МбайтПродолжительность : 14 м.Общий поток : 1613 Кбит/секДата кодирования : UTC 2015-11-15 15:23:32Программа кодирования : mkvmerge v8.5.2 ('Crosses') 64bitБиблиотека кодирования : libebml v1.3.3 + libmatroska v1.4.4DURATION : 00:14:37.920000000NUMBER_OF_FRAMES : 36580NUMBER_OF_BYTES : 17558400_STATISTICS_WRITING_APP : mkvmerge v8.5.2 ('Crosses') 64bit_STATISTICS_WRITING_DATE_UTC : 2015-11-15 15:23:32_STATISTICS_TAGS : BPS DURATION NUMBER_OF_FRAMES NUMBER_OF_BYTES
ВидеоИдентификатор : 1Формат : AVCФормат/Информация : Advanced Video CodecПрофиль формата : High@L4.1Параметр CABAC формата : ДаПараметр ReFrames формата : 9 кадровИдентификатор кодека : V_MPEG4/ISO/AVCПродолжительность : 14 м.Битрейт : 1452 Кбит/секШирина : 688 пикселейВысота : 562 пикселяСоотношение сторон : 4:3Режим частоты кадров : ПостоянныйЧастота кадров : 25,000 кадров/секЦветовое пространство : YUVСубдискретизация насыщенности : 4:2:0Битовая глубина : 8 битТип развёртки : ПрогрессивнаяБит/(Пиксели*Кадры) : 0.150Размер потока : 149 Мбайт (88%)Заголовок : For rutracker.orgБиблиотека кодирования : x264 core 146 r2538 121396cНастройки программы : cabac=1 / ref=9 / deblock=1:-1:-1 / analyse=0x3:0x133 / me=umh / subme=9 / psy=1 / psy_rd=1.00:0.15 / mixed_ref=1 / me_range=32 / chroma_me=1 / trellis=2 / 8x8dct=1 / cqm=0 / deadzone=21,11 / fast_pskip=0 / chroma_qp_offset=-3 / threads=6 / lookahead_threads=1 / sliced_threads=0 / nr=0 / decimate=1 / interlaced=0 / bluray_compat=0 / constrained_intra=0 / bframes=7 / b_pyramid=2 / b_adapt=2 / b_bias=0 / direct=3 / weightb=1 / open_gop=0 / weightp=2 / keyint=250 / keyint_min=25 / scenecut=40 / intra_refresh=0 / rc_lookahead=40 / rc=2pass / mbtree=1 / bitrate=1452 / ratetol=1.0 / qcomp=0.60 / qpmin=10 / qpmax=51 / qpstep=4 / cplxblur=20.0 / qblur=0.5 / ip_ratio=1.40 / aq=1:1.00Язык : RussianDefault : ДаForced : Нет
АудиоИдентификатор : 2Формат : MPEG AudioВерсия формата : Version 1Профиль формата : Layer 2Идентификатор кодека : A_MPEG/L2Идентификатор кодека/Подсказка : MP2Продолжительность : 14 м.Вид битрейта : ПостоянныйБитрейт : 160 Кбит/секКаналы : 2 каналаЧастота : 48,0 КГцМетод сжатия : С потерямиРазмер потока : 16,7 Мбайт (10%)Заголовок : MP2-2 каналаЯзык : RussianDefault : ДаForced : Нет
Скриншоты Прошу учесть!
Раздавать могу
только
с 23:00 до 5:00 по Москве
Спасибо всем!
Скачать

Скачать торрент!

Как скачивать? · Что такое торрент? · Рейтинг и ограничения

Сайт не распространяет и не хранит электронные версии произведений, а лишь предоставляет доступ к создаваемому пользователями каталогу ссылок на торрент-файлы, которые содержат только списки хеш-сумм

[Профиль] [ЛС]
Показать сообщения:    
Ответить на тему

Текущее время: Сегодня 07:02

Часовой пояс: GMT + 4



Вы не можете начинать темы
Вы не можете отвечать на сообщения
Вы не можете редактировать свои сообщения
Вы не можете удалять свои сообщения
Вы не можете голосовать в опросах
Вы не можете прикреплять файлы к сообщениям
Вы не можете скачивать файлы