Три (Павел Хвалеев) [2015, ужасы, триллер, драма, HDRip]

Ответить на тему
 
Автор Сообщение

user ®

Стаж: 7 лет 7 месяцев

Сообщений: 20008

Пост Пост: #1 от 15-Ноя-2015 20:36

[Цитировать]

Три
Жанр: ужасы, триллер, драма
Год выпуска: 2015
Продолжительность: 01:20:25-Режиссёр: Павел Хвалеев-В ролях: Полина Давыдова, Евгений Гагарин, Любовь Игнатушко-Описание: В маленький европейский городок, в котором живут сёстры Айя и Мирра, пришла неизвестная болезнь, которая унесла жизни многих горожан. После смерти мамы заболевает младшая Мирра. Понимая, что традиционная медицина бессильна перед болезнью сестры, Айя обращается за помощью к близкому другу семьи, приходскому священнику отцу Герману. В его доме Айя случайно находит книги далёкие от традиционной религии.
Она узнаёт, что только проникнув в больное подсознание Мирры и отыскав истинную причину её болезни, она получит шанс на спасение сестры. Айя готова пройти страшный ритуал, погрузиться в недра подсознания и встретиться лицом к лицу с обитающими там демонами. Но сможет ли она справиться с собственным страхом, когда узнает все тайны прошлой жизни сестры?-Сэмпл: http://sendfile.su/1173959

Качество видео: HDRip
Формат видео: AVI
Видео: 720x304 (2.37:1), 24.000 fps, XviD build 50 ~2383 kbps avg, 0.45 bit/pixel
Аудио: 48 kHz, AC3 Dolby Digital, 2/0 (L,R) ch, ~192 kbps
MediaInfo
Формат : AVI
Формат/Информация : Audio Video Interleave
Размер файла : 1,45 Гбайт
Продолжительность : 1 ч. 20 м.
Общий поток : 2585 Кбит/сек
Программа кодирования : VirtualDubMod 1.5.10.2 (build 2540/release)
Библиотека кодирования : VirtualDubMod build 2540/release
Видео
Идентификатор : 0
Формат : MPEG-4 Visual
Профиль формата : Advanced Simple@L5
Параметр BVOP формата : 1
Параметр QPel формата : Нет
Параметр GMC формата : Без точки перехода
Параметр матрицы формата : Default (MPEG)
Идентификатор кодека : XVID
Идентификатор кодека/Подсказка : XviD
Продолжительность : 1 ч. 20 м.
Битрейт : 2384 Кбит/сек
Ширина : 720 пикселей
Высота : 304 пикселя
Соотношение сторон : 2,35:1
Частота кадров : 24,000 кадра/сек
Цветовое пространство : YUV
Субдискретизация насыщенности : 4:2:0
Битовая глубина : 8 бит
Тип развёртки : Прогрессивная
Метод сжатия : С потерями
Бит/(Пиксели*Кадры) : 0.454
Размер потока : 1,34 Гбайт (92%)
Библиотека кодирования : XviD 1.2.1 (UTC 2008-12-04)
Аудио
Идентификатор : 1
Формат : AC-3
Формат/Информация : Audio Coding 3
Расширение режима : CM (complete main)
Параметр Endianness формата : Big
Идентификатор кодека : 2000
Продолжительность : 1 ч. 20 м.
Вид битрейта : Постоянный
Битрейт : 192 Кбит/сек
Каналы : 2 канала
Расположение каналов : Front: L R
Частота : 48,0 КГц
Метод сжатия : С потерями
Размер потока : 110 Мбайт (7%)
Выравнивание : Разделение по промежуткам
Продолжительность промежутка : 42 мс. (1,00 видеокадр)
Время предзагрузки промежутка : 500 мс.
Скриншот c названием фильма Скриншоты
Скачать

Скачать торрент!

Как скачивать? · Что такое торрент? · Рейтинг и ограничения

Сайт не распространяет и не хранит электронные версии произведений, а лишь предоставляет доступ к создаваемому пользователями каталогу ссылок на торрент-файлы, которые содержат только списки хеш-сумм

[Профиль] [ЛС]
Показать сообщения:    
Ответить на тему

Текущее время: Сегодня 22:33

Часовой пояс: GMT + 4



Вы не можете начинать темы
Вы не можете отвечать на сообщения
Вы не можете редактировать свои сообщения
Вы не можете удалять свои сообщения
Вы не можете голосовать в опросах
Вы не можете прикреплять файлы к сообщениям
Вы не можете скачивать файлы