Скорость: Автобус 657 / Heist (Скотт Манн / Scott Mann) [2015, США, боевик, триллер, WEB-DLRip] Dub (Line) + Original Eng

Ответить на тему
 
Автор Сообщение

user ®

Стаж: 7 лет 7 месяцев

Сообщений: 20008

Пост Пост: #1 от 15-Ноя-2015 14:24

[Цитировать]

Скорость: Автобус 657 / Heist
Страна: США
Жанр: боевик, триллер
Год выпуска: 2015
Продолжительность: 01:32:34
Перевод: Профессиональный (дублированный) Line
Cубтитры: нет
Оригинальная аудиодорожка: английский
Режиссер: Скотт Манн / Scott Mann
В ролях: Джеффри Дин Морган, Роберт Де Ниро, Кейт Босворт, Дэйв Батиста, Джина Карано, Марк-Пол Госселаар, Моррис Честнат, Д.Б. Суини, Саммер Элтис, Лидия Халл
Описание: Все знают, что обокрасть Фрэнка Поупа, владельца казино и босса мафии — это самоубийство. Но однажды некогда преданный ему крупье решается вынести из кассы казино несколько миллионов долларов. Все было продумано, но план не сработал. Скрываясь с места преступления, грабители захватывают автобус, полный заложников. На бешеной скорости автобус мчится к мексиканской границе. Топливо на пределе. На хвосте — мафия и полиция. И, кажется, выхода нет…
Сэмпл: http://multi-up.com/1075309
Качество видео: WEB-DLRip
Формат видео: AVI
Видео: Xvid 720x304 23.98fps 1 738 Kbps
Аудио: Dolby AC3 48000Hz stereo 192kbps rus
Аудио 2: Dolby AC3 48000Hz stereo 192kbps eng
MediaInfo
Format : AVI
Format/Info : Audio Video Interleave
File size : 1.38 GiB
Duration : 1h 32mn
Overall bit rate : 2 135 Kbps
Writing application : VirtualDubMod 1.5.10.2 (build 2540/release)
Writing library : VirtualDubMod build 2540/release
Video
ID : 0
Format : MPEG-4 Visual
Format profile : AdvancedSimple@L5
Format settings, BVOP : Yes
Format settings, QPel : No
Format settings, GMC : No warppoints
Format settings, Matrix : Default (H.263)
Muxing mode : Packed bitstream
Codec ID : XVID
Codec ID/Hint : XviD
Duration : 1h 32mn
Bit rate : 1 738 Kbps
Width : 720 pixels
Height : 304 pixels
Display aspect ratio : 2.35:1
Frame rate : 23.976 fps
Resolution : 24 bits
Colorimetry : 4:2:0
Scan type : Progressive
Bits/(Pixel*Frame) : 0.331
Stream size : 1.12 GiB (81%)
Writing library : XviD 66
Audio #1
ID : 1
Format : AC-3
Format/Info : Audio Coding 3
Codec ID : 2000
Duration : 1h 32mn
Bit rate mode : Constant
Bit rate : 192 Kbps
Channel(s) : 2 channels
Channel positions : L R
Sampling rate : 48.0 KHz
Stream size : 127 MiB (9%)
Alignment : Split accross interleaves
Interleave, duration : 42 ms (1.00 video frame)
Interleave, preload duration : 500 ms
Audio #2
ID : 2
Format : AC-3
Format/Info : Audio Coding 3
Codec ID : 2000
Duration : 1h 32mn
Bit rate mode : Constant
Bit rate : 192 Kbps
Channel(s) : 2 channels
Channel positions : L R
Sampling rate : 48.0 KHz
Stream size : 127 MiB (9%)
Alignment : Split accross interleaves
Interleave, duration : 42 ms (1.00 video frame)
Interleave, preload duration : 500 ms
Скриншот c названием фильма Скриншоты
Скачать

Скачать торрент!

Как скачивать? · Что такое торрент? · Рейтинг и ограничения

Сайт не распространяет и не хранит электронные версии произведений, а лишь предоставляет доступ к создаваемому пользователями каталогу ссылок на торрент-файлы, которые содержат только списки хеш-сумм

[Профиль] [ЛС]
Показать сообщения:    
Ответить на тему

Текущее время: Сегодня 12:13

Часовой пояс: GMT + 4



Вы не можете начинать темы
Вы не можете отвечать на сообщения
Вы не можете редактировать свои сообщения
Вы не можете удалять свои сообщения
Вы не можете голосовать в опросах
Вы не можете прикреплять файлы к сообщениям
Вы не можете скачивать файлы