Головоломка / Inside Out (Пит Доктер / Pete Docter, Роналдо Дель Кармен / Ronnie Del Carmen) [2015, США, мультфильм, семейный, комедия, BDRip] Dub (Rus, Ukr) + Original Eng + Sub (Rus, Eng)

Ответить на тему
 
Автор Сообщение

user ®

Стаж: 11 лет

Сообщений: 15145

Пост Пост: #1 от 14-Ноя-2015 23:00

[Цитировать]

Головоломка / Inside Out
Страна: США
Жанр: мультфильм, семейный, комедия
Продолжительность: 01:34:49
Год выпуска: 2015
Перевод: Профессиональный (дублированный) BD CEE лицензия
Перевод 2: Профессиональный (дублированный) украинский отдельно
Cубтитры: русские, английские (полные, SDH, SDH-COLORED)
Оригинальная аудиодорожка: английский отдельно
Режиссёр: Пит Доктер / Pete Docter, Роналдо Дель Кармен / Ronnie Del Carmen
Роли озвучивали: Эми Полер, Филлис Смит, Ричард Кайнд, Билл Хейдер, Льюис Блэк, Минди Кейлинг, Кейтлин Диас, Дайан Лэйн, Кайл МакЛоклен, Пола Паундстон
Описание: Райли — обычная 11-летняя школьница, и, как у каждого из нас, ее поведение определяют пять базовых эмоций: Радость, Печаль, Страх, Гнев и Брезгливость. Эмоции живут в сознании девочки и каждый день помогают ей справляться с проблемами, руководя всеми ее поступками. До поры до времени эмоции живут дружно, но вдруг оказывается, что Райли и ее родителям предстоит переезд из небольшого уютного городка в шумный и людный мегаполис. Каждая из эмоций считает, что именно она лучше прочих знает, что нужно делать в этой непростой ситуации, и в голове у девочки наступает полная неразбериха. Чтобы наладить жизнь в большом городе, освоиться в новой школе и подружиться с одноклассниками, эмоциям Райли предстоит снова научиться работать сообща.
Релиз:
Автор: sociolog_melvas
Семпл: http://multi-up.com/1073854
Качество: BDRip (источник: HDClub / Blu-ray / 1080p)
Формат: AVI
Видео: 704x400 (1.76:1), 23,976 fps, XviD build 65 ~1733 kbps avg, 0.26 bit/pixel
Аудио: 48 kHz, AC3 Dolby Digital, 3/2 (L,C,R,l,r) + LFE ch, ~448 kbps avg (RUS)
Аудио 2: 48 kHz, AC3 Dolby Digital, 3/2 (L,C,R,l,r) + LFE ch, ~448 kbps avg (UKR) (отдельно)
Аудио 3: 48 kHz, AC3 Dolby Digital, 3/2 (L,C,R,l,r) + LFE ch, ~448 kbps avg (ENG) (отдельно)
Субтитры: русские, английские (полные, SDH, SDH-COLORED)
Подробные технические данные
Format : AVIFormat/Info : Audio Video InterleaveFile size : 1.45 GiBDuration : 1h 34mnOverall bit rate : 2 191 KbpsWriting application : VirtualDubMod 1.5.10.2 (build 2540/release)
VideoID : 0Format : MPEG-4 VisualFormat profile : AdvancedSimple@L5Format settings, BVOP : YesFormat settings, QPel : NoFormat settings, GMC : No warppointsFormat settings, Matrix : CustomCodec ID : XVIDCodec ID/Hint : XviDDuration : 1h 34mnBit rate : 1 734 KbpsWidth : 704 pixelsHeight : 400 pixelsDisplay aspect ratio : 16:9Frame rate : 23.976 fpsResolution : 24 bitsColorimetry : 4:2:0Scan type : ProgressiveBits/(Pixel*Frame) : 0.257Stream size : 1.15 GiB (79%)Writing library : XviD 65
AudioID : 1Format : AC-3Format/Info : Audio Coding 3Codec ID : 2000Duration : 1h 34mnBit rate mode : ConstantBit rate : 448 KbpsChannel(s) : 6 channelsChannel positions : Front: L C R, Surround: L R, LFESampling rate : 48.0 KHzStream size : 304 MiB (20%)Alignment : Split accross interleavesInterleave, duration : 42 ms (1.00 video frame)Interleave, preload duration : 500 ms
Скриншоты
Скачать

Скачать торрент! Головоломка / Inside Out (Пит Доктер / Pete Docter, Роналдо Дель Кармен / Ronnie Del Carmen) [2015, США, мультфильм, семейный, комедия, BDRip] Dub (Rus, Ukr) + Original Eng + Sub (Rus, Eng)

Как скачивать? · Что такое торрент? · Рейтинг и ограничения

Сайт не распространяет и не хранит электронные версии произведений, а лишь предоставляет доступ к создаваемому пользователями каталогу ссылок на торрент-файлы, которые содержат только списки хеш-сумм

[Профиль] [ЛС]
Показать сообщения:    
Ответить на тему

Текущее время: Сегодня 19:15

Часовой пояс: GMT + 4



Вы не можете начинать темы
Вы не можете отвечать на сообщения
Вы не можете редактировать свои сообщения
Вы не можете удалять свои сообщения
Вы не можете голосовать в опросах
Вы не можете прикреплять файлы к сообщениям
Вы не можете скачивать файлы