Дикий город / Bou Chau Mai Sing / Wild City (Ринго Лам / Ringo Lam) [2015, Гонконг, боевик, триллер, криминал, HDRip] DVO (DeadSno & den904)

Ответить на тему
 
Автор Сообщение

user ®

Стаж: 13 лет

Сообщений: 15071

Пост Пост: #1 от 14-Ноя-2015 23:00

[Цитировать]

Дикий город / Bou Chau Mai Sing / Wild City
Страна: Гонконг
Жанр: боевик, триллер, криминал
Год выпуска: 2015
Продолжительность: 01:40:25-Перевод: Любительский (двухголосный закадровый) DeadSno & den904
Cубтитры: нет
Оригинальная аудио дорожка: нет-Режиссер: Ринго Лам / Ringo Lam-В ролях: Луис Ку, Шон Юе, Лия Тун, Сяо-Чуань Чан, Джек Као, Сэм Ли, Филип Нг, Дейв Вон, Саймон Ям-Описание: Отставной полицейский, содержащий бар, помогает пьяной девушке и привозит ее домой. Когда его брат отправляется, чтобы проводить, проспавшуюся после бурной ночи девушку, на них нападают бандиты и увозят незнакомку в неизвестном направлении. Он бросается ее спасать, понимая, что все больше погружается пучину лжи и преступлений, который он, верный зову полицейского долга, должен будет распутать и восстановить справедливость.-Сэмпл: http://sendfile.su/1173290
Качество видео: HDRip
Формат видео: AVI
Видео: 720x304 (2.37:1), 24.000 fps, XviD build 73 ~1734 kbps avg, 0.33 bit/pixel
Аудио: 48 kHz, AC3 Dolby Digital, 2/0 (L,R) ch, ~192 kbps

MediaInfo
Формат : AVI
Формат/Информация : Audio Video Interleave
Размер файла : 1,36 Гбайт
Продолжительность : 1 ч. 40 м.
Общий поток : 1936 Кбит/сек
Программа кодирования : VirtualDubMod 1.5.10.3 | www.virtualdub-fr.org || (build 2550/release)
Библиотека кодирования : VirtualDub build 35390/release
Видео
Идентификатор : 0
Формат : MPEG-4 Visual
Профиль формата : Advanced Simple@L5
Параметр BVOP формата : 2
Параметр QPel формата : Нет
Параметр GMC формата : Без точки перехода
Параметр матрицы формата : Default (MPEG)
Идентификатор кодека : XVID
Идентификатор кодека/Подсказка : XviD
Продолжительность : 1 ч. 40 м.
Битрейт : 1735 Кбит/сек
Ширина : 720 пикселей
Высота : 304 пикселя
Соотношение сторон : 2,35:1
Частота кадров : 24,000 кадра/сек
Цветовое пространство : YUV
Субдискретизация насыщенности : 4:2:0
Битовая глубина : 8 бит
Тип развёртки : Прогрессивная
Метод сжатия : С потерями
Бит/(Пиксели*Кадры) : 0.330
Размер потока : 1,22 Гбайт (90%)
Библиотека кодирования : XviD 73
Аудио
Идентификатор : 1
Формат : AC-3
Формат/Информация : Audio Coding 3
Расширение режима : CM (complete main)
Параметр Endianness формата : Big
Идентификатор кодека : 2000
Продолжительность : 1 ч. 40 м.
Вид битрейта : Постоянный
Битрейт : 192 Кбит/сек
Каналы : 2 канала
Расположение каналов : Front: L R
Частота : 48,0 КГц
Метод сжатия : С потерями
Задержка видео : 15 мс.
Размер потока : 138 Мбайт (10%)
Выравнивание : Разделение по промежуткам
Продолжительность промежутка : 42 мс. (1,00 видеокадр)
Время предзагрузки промежутка : 500 мс.
Скриншот c названием фильма Скриншоты
Скачать

Скачать торрент! Дикий город / Bou Chau Mai Sing / Wild City (Ринго Лам / Ringo Lam) [2015, Гонконг, боевик, триллер, криминал, HDRip] DVO (DeadSno & den904)

Как скачивать? · Что такое торрент? · Рейтинг и ограничения

Сайт не распространяет и не хранит электронные версии произведений, а лишь предоставляет доступ к создаваемому пользователями каталогу ссылок на торрент-файлы, которые содержат только списки хеш-сумм

[Профиль] [ЛС]
Показать сообщения:    
Ответить на тему

Текущее время: Сегодня 15:53

Часовой пояс: GMT + 4



Вы не можете начинать темы
Вы не можете отвечать на сообщения
Вы не можете редактировать свои сообщения
Вы не можете удалять свои сообщения
Вы не можете голосовать в опросах
Вы не можете прикреплять файлы к сообщениям
Вы не можете скачивать файлы