Вой / Howl (Пол Хайет / Paul Hyett) [2015, Великобритания, ужасы, HDRip] VO (Paul Bunyan)

Ответить на тему
 
Автор Сообщение

user ®

Стаж: 7 лет 7 месяцев

Сообщений: 20008

Пост Пост: #1 от 14-Ноя-2015 23:00

[Цитировать]

Вой / Howl
Страна: Великобритания
Жанр: ужасы
Год выпуска: 2015
Продолжительность: 01:32:25
Перевод: Одноголосый закадровый Paul Bunyan
Cубтитры: нет
Режиссер: Пол Хайет / Paul Hyett
В ролях: Эдвард Спелирс, Холли Уэстон, Эллиот Кауэн, Амит Шах, Сэм Гиттинс, Шона МакДональд, Дункан Престон, Аня Марсон, Рози Дэй, Кэлвин Дин
Описание: После того, как зверь напал на пассажиров поезда, им нужно объединиться, что бы дожить до утра.
Сэмпл: http://multi-up.com/1075179
Качество видео: HDRip (исходник не известен)
Формат видео: AVI
Видео: Xvid 720x304 24.00fps 1 779 Kbps
Аудио: Dolby AC3 48000Hz 6ch 448kbps
MediaInfo
Format : AVI
Format/Info : Audio Video Interleave
File size : 1.44 GiB
Duration : 1h 32mn
Overall bit rate : 2 237 Kbps
Writing application : VirtualDubMod 1.5.10.3 | www.virtualdub-fr.org || (build 2550/release)
Writing library : VirtualDubMod build 2550/release
Video
ID : 0
Format : MPEG-4 Visual
Format profile : AdvancedSimple@L5
Format settings, BVOP : Yes
Format settings, QPel : No
Format settings, GMC : No warppoints
Format settings, Matrix : Custom
Codec ID : XVID
Codec ID/Hint : XviD
Duration : 1h 32mn
Bit rate : 1 779 Kbps
Width : 720 pixels
Height : 304 pixels
Display aspect ratio : 2.35:1
Frame rate : 24.000 fps
Resolution : 24 bits
Colorimetry : 4:2:0
Scan type : Progressive
Bits/(Pixel*Frame) : 0.339
Stream size : 1.15 GiB (80%)
Writing library : XviD 73
Audio
ID : 1
Format : AC-3
Format/Info : Audio Coding 3
Codec ID : 2000
Duration : 1h 32mn
Bit rate mode : Constant
Bit rate : 448 Kbps
Channel(s) : 6 channels
Channel positions : Front: L C R, Surround: L R, LFE
Sampling rate : 48.0 KHz
Stream size : 296 MiB (20%)
Alignment : Split accross interleaves
Interleave, duration : 42 ms (1.00 video frame)
Interleave, preload duration : 500 ms
Скриншот c названием фильма Скриншоты
Скачать

Скачать торрент!

Как скачивать? · Что такое торрент? · Рейтинг и ограничения

Сайт не распространяет и не хранит электронные версии произведений, а лишь предоставляет доступ к создаваемому пользователями каталогу ссылок на торрент-файлы, которые содержат только списки хеш-сумм

[Профиль] [ЛС]
Показать сообщения:    
Ответить на тему

Текущее время: Сегодня 18:20

Часовой пояс: GMT + 4



Вы не можете начинать темы
Вы не можете отвечать на сообщения
Вы не можете редактировать свои сообщения
Вы не можете удалять свои сообщения
Вы не можете голосовать в опросах
Вы не можете прикреплять файлы к сообщениям
Вы не можете скачивать файлы