Сквозь тернии / If There Be Thorns (Нэнси Сэвока / Nancy Savoca) [2015, США, Канада, драма, WEB-DLRip-AVC] VO + Sub Rus + Original Eng

Ответить на тему
 
Автор Сообщение

user ®

Стаж: 7 лет 7 месяцев

Сообщений: 20008

Пост Пост: #1 от 14-Ноя-2015 23:00

[Цитировать]

Сквозь тернии / If There Be Thorns
Страна: США, Канада
Жанр: драма
Год выпуска: 2015
Продолжительность: 01:40:03
Перевод: Одноголосый закадровый
Cубтитры: русские
Оригинальная аудиодорожка: английский
Режиссер: Нэнси Сэвока / Nancy Savoca
В ролях: Мэйсон Кук / Mason Cook, Рейчал Карпани / Rachael Carpani, Глайнис Дейвис / Glynis Davies, Джедидайя Гудакр / Jedidiah Goodacre, Хэзер Грэм / Heather Graham, МакКензи Грэй / Mackenzie Gray, Джейсон Льюис / Jason Lewis, Кристин Липпа / Christine Lippa, Дэниэл Мартин / Daniel Martin, Роберт Молони / Robert Moloney
Описание: Кэтрин и Кристофер Доллангенджеры живут счастливой семейной жизнью с двумя сыновьями, которые не подозревают о тайне отношений родителей. Когда таинственная женщина переезжает в соседний дом, после чего сближается с младшим сыном, у него начинается странное поведение по отношению к родителям. Когда Кристофер обнаруживает таинственную соседку, в которой признает свою мать, все давно скрытые тайны семьи раскрываются в трагической кульминации.
Доп. информация: Субтитры: Сообщество "Цветы на чердаке/Лепестки на ветру". Отдельное спасибо Снежане Прокофьевой и Тане Кирдяшкиной за проделанную ими работу.
Сэмпл: http://multi-up.com/1075290
Качество видео: WEB-DLRip-AVC
Формат видео: MKV
Видео: AVC at 880 Кбит/сек : 854 x 480 (1.779) at 23.976 fps
Аудио 1: MPEG Audio at 160 Кбит/сек : 2 канала, 44,1 КГц Language: ru
Аудио 2: MPEG Audio at 160 Кбит/сек : 2 канала, 44,1 КГц Language: en
Формат субтитров: hardsub (неотключаемые)
MediaInfo
Общее
Уникальный идентификатор : 205695587390906779442281434796965112518 (0x9ABF87744E791B00BEB5C49C5A122AC6)
Полное имя : F:\С моей озвучкой\Сквозь тернии.mkv
Формат : Matroska
Версия формата : Version 4 / Version 2
Размер файла : 860 Мбайт
Продолжительность : 1 ч. 40 м.
Общий поток : 1202 Кбит/сек
Дата кодирования : UTC 2015-11-13 21:14:14
Программа кодирования : mkvmerge v7.9.0 ('Birds') 64bit
Библиотека кодирования : libebml v1.3.1 + libmatroska v1.4.2
DURATION : 01:40:02.782000000
NUMBER_OF_FRAMES : 229794
NUMBER_OF_BYTES : 120055641
_STATISTICS_WRITING_APP : mkvmerge v7.9.0 ('Birds') 64bit
_STATISTICS_WRITING_DATE_UTC : 2015-11-13 21:14:14
_STATISTICS_TAGS : BPS DURATION NUMBER_OF_FRAMES NUMBER_OF_BYTES
Видео
Идентификатор : 1
Формат : AVC
Формат/Информация : Advanced Video Codec
Профиль формата : Baseline@L3.0
Параметр CABAC формата : Нет
Параметр ReFrames формата : 3 кадра
Идентификатор кодека : V_MPEG4/ISO/AVC
Продолжительность : 1 ч. 40 м.
Битрейт : 880 Кбит/сек
Ширина : 854 пикселя
Высота : 480 пикселей
Соотношение сторон : 16:9
Соотношение сторон в оригинале : 16:9
Режим частоты кадров : Постоянный
Частота кадров : 23,976 кадра/сек
Цветовое пространство : YUV
Субдискретизация насыщенности : 4:2:0
Битовая глубина : 8 бит
Тип развёртки : Прогрессивная
Бит/(Пиксели*Кадры) : 0.090
Размер потока : 614 Мбайт (71%)
Библиотека кодирования : x264 core 142
Настройки программы : cabac=0 / ref=3 / deblock=1:0:0 / analyse=0x1:0x111 / me=hex / subme=7 / psy=1 / psy_rd=1.00:0.00 / mixed_ref=1 / me_range=16 / chroma_me=1 / trellis=1 / 8x8dct=0 / cqm=0 / deadzone=21,11 / fast_pskip=1 / chroma_qp_offset=-2 / threads=4 / lookahead_threads=1 / sliced_threads=0 / nr=0 / decimate=1 / interlaced=0 / bluray_compat=0 / constrained_intra=0 / bframes=0 / weightp=0 / keyint=24 / keyint_min=2 / scenecut=40 / intra_refresh=0 / rc_lookahead=24 / rc=2pass / mbtree=1 / bitrate=880 / ratetol=1.0 / qcomp=0.60 / qpmin=0 / qpmax=69 / qpstep=4 / cplxblur=20.0 / qblur=0.5 / ip_ratio=1.40 / aq=1:1.00
Default : Да
Forced : Нет
Аудио #1
Идентификатор : 2
Формат : MPEG Audio
Версия формата : Version 1
Профиль формата : Layer 3
Режим : Joint stereo
Расширение режима : MS Stereo
Идентификатор кодека : A_MPEG/L3
Идентификатор кодека/Подсказка : MP3
Продолжительность : 1 ч. 40 м.
Вид битрейта : Постоянный
Битрейт : 160 Кбит/сек
Каналы : 2 канала
Частота : 44,1 КГц
Метод сжатия : С потерями
Размер потока : 114 Мбайт (13%)
Библиотека кодирования : LAME3.96
Язык : Russian
Default : Да
Forced : Нет
Аудио #2
Идентификатор : 3
Формат : MPEG Audio
Версия формата : Version 1
Профиль формата : Layer 3
Режим : Joint stereo
Расширение режима : MS Stereo
Идентификатор кодека : A_MPEG/L3
Идентификатор кодека/Подсказка : MP3
Продолжительность : 1 ч. 40 м.
Вид битрейта : Постоянный
Битрейт : 160 Кбит/сек
Каналы : 2 канала
Частота : 44,1 КГц
Метод сжатия : С потерями
Размер потока : 114 Мбайт (13%)
Библиотека кодирования : LAME3.98
Язык : English
Default : Нет
Forced : Нет
Скриншоты
Скачать

Скачать торрент!

Как скачивать? · Что такое торрент? · Рейтинг и ограничения

Сайт не распространяет и не хранит электронные версии произведений, а лишь предоставляет доступ к создаваемому пользователями каталогу ссылок на торрент-файлы, которые содержат только списки хеш-сумм

[Профиль] [ЛС]
Показать сообщения:    
Ответить на тему

Текущее время: Сегодня 04:23

Часовой пояс: GMT + 4



Вы не можете начинать темы
Вы не можете отвечать на сообщения
Вы не можете редактировать свои сообщения
Вы не можете удалять свои сообщения
Вы не можете голосовать в опросах
Вы не можете прикреплять файлы к сообщениям
Вы не можете скачивать файлы