Габбар вернулся / Габбар... Возвращается / Gabbar is Back (Радха Кришна Джагарламуди / Radha Krishna Jagarlamudi) [2015, Индия, Боевик, драма, криминал, HDRip] MVO (ICG)

Ответить на тему
 
Автор Сообщение

user ®

Стаж: 13 лет

Сообщений: 15070

Пост Пост: #1 от 13-Ноя-2015 16:00

[Цитировать]

Габбар вернулся (Габбар... Возвращается) / Gabbar is Back -Страна: Индия
Жанр: Боевик, драма, криминал
Год выпуска: 2015
Продолжительность: 02:07:08-Перевод: Любительский (многоголосый, закадровый) ICG
Cубтитры: нет
Оригинальная аудиодорожка: нет-Режиссер: Радха Кришна Джагарламуди / Radha Krishna Jagarlamudi-В ролях: Акшай Кумар, Шрути Хасан, Сунил Гроувер, Суман, Карина Капур, Ишита Вьяс, Шрути Бапна, Джайдип Ахлават, Радж Сингх, Арора, Правина Дешпанде, Нарендра Джейтли, Читрангада Сингх-Описание: Габбар Сингх Раджпут создает свою собственную организацию по борьбе с коррупцией для ликвидации наиболее коррумпированных личностей из всех слоев общества. Вскоре на полицию и правительство начинают оказывать давление, чтобы те разыскали человека, стоящего во главе этой организации…-Доп. информация:

Автор рипа: MECHANICAL ENGINEER
-
Качество видео: [url=http://***/forum/viewtopic.php?t=5047679]HDRip[/url]
Формат видео: AVI
Видео: 720 x 304; 24.000 fps; 1989 kbps; 0.38 bit/pixel
Аудио: 48 kHz; 5.1 ch; 448.00 kbps; AC3 Dolby Digital
Размер файла: 2223.01 Mb (1/2 DVD5)
В этой раздаче убрана реклама сторонних ресурсов.
MediaInfo
Format                                   : AVI
Format/Info                              : Audio Video Interleave
Format profile                           : OpenDML
File size                                : 2.17 GiB
Duration                                 : 2h 7mn
Overall bit rate                         : 2 444 Kbps
Movie name                               : Габбар вернулся / Габбар... Возвращается / Gabbar is Back (2015)
Director                                 : MECHANICAL ENGINEER (BDRip 1080)
Genre                                    : Боевик, драма, криминал
Writing application                      : VirtualDubMod 1.5.10.3 | www.virtualdub-fr.org || (build 2550/release)
Original source form/Name                : Movie
Copyright                                : Индия
Comment                                  : 11.11.2015
Video
ID                                       : 0
Format                                   : MPEG-4 Visual
Format profile                           : Advanced Simple@L5
Format settings, BVOP                    : 1
Format settings, QPel                    : No
Format settings, GMC                     : No warppoints
Format settings, Matrix                  : Custom
Codec ID                                 : XVID
Codec ID/Hint                            : XviD
Duration                                 : 2h 7mn
Bit rate                                 : 1 984 Kbps
Width                                    : 720 pixels
Height                                   : 304 pixels
Display aspect ratio                     : 2.35:1
Frame rate                               : 24.000 fps
Color space                              : YUV
Chroma subsampling                       : 4:2:0
Bit depth                                : 8 bits
Scan type                                : Progressive
Compression mode                         : Lossy
Bits/(Pixel*Frame)                       : 0.378
Stream size                              : 1.76 GiB (81%)
Writing library                          : XviD 65
Audio
ID                                       : 1
Format                                   : AC-3
Format/Info                              : Audio Coding 3
Mode extension                           : CM (complete main)
Format settings, Endianness              : Big
Codec ID                                 : 2000
Duration                                 : 2h 7mn
Bit rate mode                            : Constant
Bit rate                                 : 448 Kbps
Channel(s)                               : 6 channels
Channel positions                        : Front: L C R, Side: L R, LFE
Sampling rate                            : 48.0 KHz
Bit depth                                : 16 bits
Compression mode                         : Lossy
Stream size                              : 407 MiB (18%)
Alignment                                : Split accross interleaves
Interleave, duration                     : 42 ms (1.00 video frame)
Interleave, preload duration             : 500 ms
Скриншоты (превью - увеличение по клику): ПРИЯТНОГО ПРОСМОТРА!
Скачать

Скачать торрент! Габбар вернулся / Габбар... Возвращается / Gabbar is Back (Радха Кришна Джагарламуди / Radha Krishna Jagarlamudi) [2015, Индия, Боевик, драма, криминал, HDRip] MVO (ICG)

Как скачивать? · Что такое торрент? · Рейтинг и ограничения

Сайт не распространяет и не хранит электронные версии произведений, а лишь предоставляет доступ к создаваемому пользователями каталогу ссылок на торрент-файлы, которые содержат только списки хеш-сумм

[Профиль] [ЛС]
Показать сообщения:    
Ответить на тему

Текущее время: Сегодня 15:36

Часовой пояс: GMT + 4



Вы не можете начинать темы
Вы не можете отвечать на сообщения
Вы не можете редактировать свои сообщения
Вы не можете удалять свои сообщения
Вы не можете голосовать в опросах
Вы не можете прикреплять файлы к сообщениям
Вы не можете скачивать файлы