Тетушка Хильда! / Tante Hilda! (Бенуа Тьен, Жак-Реми Жерар / Benoît Chieux, Jacques-Rémy Girerd) [2013, Франция, Люксембург, мультфильм, комедия, семейный, HDRip] VO (Max Nabokov)

Ответить на тему
 
Автор Сообщение

user ®

Стаж: 13 лет

Сообщений: 15041

Пост Пост: #1 от 13-Ноя-2015 03:33

[Цитировать]

Тетушка Хильда! / Tante Hilda!
Страна: Франция, Люксембург
Жанр: мультфильм, комедия, семейный
Продолжительность: 1:29:14
Год выпуска: 2013
Перевод: Одноголосый закадровый (Max Nabokov)
Русские субтитры: нет
Режиссёр: Бенуа Тьен, Жак-Реми Жерар / Benoît Chieux, Jacques-Rémy Girerd
Роли озвучивали: Сабин Азема, Жозиан Баласко, Франсуа Морель, Бруно Лоше, Сергей Владимиров, Жиль Детруа, Бернард Буллон, Николя Деморан, Кристиан Тапонар, Лайн Уибл, Натали Форт
Описание: Тетушка Хильда, большая любительница природы, содержит целый зеленый музей — в огромной теплице у нее растут тысячи и тысячи растений со всех уголков мира. А в исследовательской лаборатории местной корпорации тем временем выводят новую зерновую культуру Аттилем. Она не требует воды, не нуждается в удобрениях и дает обильный урожай. Настолько обильный, что вскоре этот гибрид грозит заполонить мир и уничтожить все остальные растения, включая оранжерею тетушки Хильды.
Доп. информация: Берлинский кинофестиваль, 2014 год.
Номинация: Хрустальный медведь - лучший художественный фильм конкурса для юношества.
Семпл: http://multi-up.com/1075188
Качество: HDRip [Tante.Hilda.2013.FRENCH.1080p.BluRay.x264-AiRLiNE]
Формат: AVI
Видео: 720x304 (2.37:1), 24 fps, XviD build 65 ~1893 kbps avg, 0.36 bit/pixel
Аудио 1: 48 kHz, AC3 Dolby Digital, 3/2 (L,C,R,l,r) + LFE ch, ~448.00 kbps avg (рус)
Аудио 2: 48 kHz, AC3 Dolby Digital, 3/2 (L,C,R,l,r) + LFE ch, ~448.00 kbps avg (фра. отдельный файл)
Подробные технические данные
GeneralComplete name : D:\Tante Hilda!Format : AVIFormat/Info : Audio Video InterleaveFile size : 1.47 GiBDuration : 1h 29mnOverall bit rate : 2 351 KbpsWriting application : VirtualDubMod 1.5.10.2 (build 2540/release)Writing library : VirtualDubMod build 2540/release
VideoID : 0Format : MPEG-4 VisualFormat profile : Advanced Simple@L5Format settings, BVOP : 2Format settings, QPel : NoFormat settings, GMC : No warppointsFormat settings, Matrix : CustomCodec ID : XVIDCodec ID/Hint : XviDDuration : 1h 29mnBit rate : 1 894 KbpsWidth : 720 pixelsHeight : 304 pixelsDisplay aspect ratio : 2.35:1Frame rate : 24.000 fpsColor space : YUVChroma subsampling : 4:2:0Bit depth : 8 bitsScan type : ProgressiveCompression mode : LossyBits/(Pixel*Frame) : 0.361Stream size : 1.18 GiB (81%)Writing library : XviD 65
AudioID : 1Format : AC-3Format/Info : Audio Coding 3Mode extension : CM (complete main)Format settings, Endianness : BigCodec ID : 2000Duration : 1h 29mnBit rate mode : ConstantBit rate : 448 KbpsChannel(s) : 6 channelsChannel positions : Front: L C R, Side: L R, LFESampling rate : 48.0 KHzCompression mode : LossyStream size : 286 MiB (19%)Alignment : Split accross interleavesInterleave, duration : 42 ms (1.00 video frame)Interleave, preload duration : 500 ms
Скриншоты
Скачать

Скачать торрент! Тетушка Хильда! / Tante Hilda! (Бенуа Тьен, Жак-Реми Жерар / Benoît Chieux, Jacques-Rémy Girerd) [2013, Франция, Люксембург, мультфильм, комедия, семейный, HDRip] VO (Max Nabokov)

Как скачивать? · Что такое торрент? · Рейтинг и ограничения

Сайт не распространяет и не хранит электронные версии произведений, а лишь предоставляет доступ к создаваемому пользователями каталогу ссылок на торрент-файлы, которые содержат только списки хеш-сумм

[Профиль] [ЛС]
Показать сообщения:    
Ответить на тему

Текущее время: Сегодня 19:26

Часовой пояс: GMT + 4



Вы не можете начинать темы
Вы не можете отвечать на сообщения
Вы не можете редактировать свои сообщения
Вы не можете удалять свои сообщения
Вы не можете голосовать в опросах
Вы не можете прикреплять файлы к сообщениям
Вы не можете скачивать файлы