Подросток (Евгений Ташков) [1983, СССР, драма, история, DVDRip-AVC]

Ответить на тему
 
Автор Сообщение

user ®

Стаж: 7 лет 7 месяцев

Сообщений: 20008

Пост Пост: #1 от 13-Ноя-2015 03:33

[Цитировать]

Подросток (мини-сериал, 6 Серий)
Год выпуска: 1983
Страна: СССР
Жанр: драма, история
Продолжительность: 02:29:46 | 02:21:31 | 02:26:16
Перевод: Оригинальные голоса
Режиссер: Евгений Ташков
В ролях: А.Ташков, О. Борисов, Л.Малеванная, Л.Оболенский, Н.Гундарева, Е.Герасимов, Т.Ташкова, М.Федина, Л.Удовиченко, О.Голубицкий, Б.Галкин, Б.Новиков и др.
Описание:
Из провинциальной Москвы приезжает в столицу, Санкт-Петербург, в дом своей матери, юный Аркадий Долгорукий. Он считает себя обиженным судьбой и людьми, которых любит; причину своих душевных терзаний он находит в поступках близких - прежде всего гражданского мужа его матери.
Однако, как выесняется, молодой человек слишком мало знает, чтобы верно судить о ком бы то ни было...
Повествование в романе ведется от лица главного героя, который своими "записками" пытается дать самому себе "сознательный отчет о первых, бурных и рискованных шагах на жизненном поприще".
Качество: DVDRip-AVC
Формат: MKV
Видео кодек: H.264
Аудио кодек: AC3
Видео: 720x576 (768x576) at 25.000 fps, MPEG-4 AVC (High@L4.1), ~3 375 Kbps | ~3 563 Kbps | ~3 039 Kbps
Аудио: AC3 48.0 KHz 2ch. 192 kbps
Сэмпл: ссылка
Коврики и сканы MI Disk 1
General
Unique ID : 209972274048737196037545915626089565574 (0x9DF73062D6A2A15184F41D1CBF5B4D86)
Complete name :Disk.1.Teenager.1983.x264.mkv
Format : Matroska
Format version : Version 4 / Version 2
File size : 3.53 GiB
Duration : 2h 29mn
Overall bit rate : 3 375 Kbps
Encoded date : UTC 2015-11-02 17:54:34
Writing application : mkvmerge v8.3.0 ('Over the Horizon') 64bit
Writing library : libebml v1.3.1 + libmatroska v1.4.2
DURATION : 02:29:44.960000000
NUMBER_OF_FRAMES : 280780
NUMBER_OF_BYTES : 215639040
_STATISTICS_WRITING_APP : mkvmerge v8.3.0 ('Over the Horizon') 64bit
_STATISTICS_WRITING_DATE_UTC : 2015-11-02 17:54:34
_STATISTICS_TAGS : BPS DURATION NUMBER_OF_FRAMES NUMBER_OF_BYTES
Video
ID : 1
Format : AVC
Format/Info : Advanced Video Codec
Format profile : High@L4.1
Format settings, CABAC : Yes
Format settings, ReFrames : 11 frames
Codec ID : V_MPEG4/ISO/AVC
Duration : 2h 29mn
Bit rate : 3 116 Kbps
Width : 720 pixels
Height : 576 pixels
Display aspect ratio : 4:3
Frame rate mode : Constant
Frame rate : 25.000 fps
Standard : PAL
Color space : YUV
Chroma subsampling : 4:2:0
Bit depth : 8 bits
Scan type : Progressive
Bits/(Pixel*Frame) : 0.301
Stream size : 3.26 GiB (92%)
Writing library : x264 core 146 r2538 121396c
Encoding settings : cabac=1 / ref=11 / deblock=1:-2:-2 / analyse=0x3:0x133 / me=umh / subme=11 / psy=1 / psy_rd=1.10:0.40 / mixed_ref=1 / me_range=32 / chroma_me=1 / trellis=2 / 8x8dct=1 / cqm=0 / deadzone=21,11 / fast_pskip=0 / chroma_qp_offset=-4 / threads=6 / lookahead_threads=1 / sliced_threads=0 / nr=0 / decimate=1 / interlaced=0 / bluray_compat=0 / constrained_intra=0 / bframes=8 / b_pyramid=2 / b_adapt=2 / b_bias=0 / direct=1 / weightb=1 / open_gop=0 / weightp=2 / keyint=250 / keyint_min=25 / scenecut=40 / intra_refresh=0 / rc_lookahead=40 / rc=crf / mbtree=0 / crf=20.0 / qcomp=1.00 / qpmin=0 / qpmax=69 / qpstep=4 / vbv_maxrate=62500 / vbv_bufsize=78125 / crf_max=0.0 / nal_hrd=none / filler=0 / ip_ratio=1.40 / pb_ratio=1.30 / aq=3:0.80
Language : Russian
Default : Yes
Forced : No
Color range : Full
Color primaries : BT.601 PAL
Transfer characteristics : BT.470 System B, BT.470 System G
Matrix coefficients : BT.601
DURATION : 02:29:45.640000000
NUMBER_OF_FRAMES : 224641
NUMBER_OF_BYTES : 3573348281
_STATISTICS_WRITING_APP : mkvmerge v8.3.0 ('Over the Horizon') 64bit
_STATISTICS_WRITING_DATE_UTC : 2015-11-02 17:54:34
_STATISTICS_TAGS : BPS DURATION NUMBER_OF_FRAMES NUMBER_OF_BYTES
Audio
ID : 2
Format : AC-3
Format/Info : Audio Coding 3
Mode extension : CM (complete main)
Format settings, Endianness : Big
Codec ID : A_AC3
Duration : 2h 29mn
Bit rate mode : Constant
Bit rate : 192 Kbps
Channel(s) : 2 channels
Channel positions : Front: L R
Sampling rate : 48.0 KHz
Compression mode : Lossy
Stream size : 206 MiB (6%)
Title : AC3 | 48 kHz | 2.0, 192 kbps; Оригинал
Language : Russian
Default : Yes
Forced : No
MI Disk 2
General
Unique ID : 248859468097161950388740061495602333689 (0xBB3897146A471212A825F9655FA247F9)
Complete name :Disk.2.Teenager.1983.x264.mkv
Format : Matroska
Format version : Version 4 / Version 2
File size : 3.55 GiB
Duration : 2h 22mn
Overall bit rate : 3 563 Kbps
Encoded date : UTC 2015-11-02 18:02:39
Writing application : mkvmerge v8.3.0 ('Over the Horizon') 64bit
Writing library : libebml v1.3.1 + libmatroska v1.4.2
DURATION : 02:22:30.400000000
NUMBER_OF_FRAMES : 267200
NUMBER_OF_BYTES : 205209600
_STATISTICS_WRITING_APP : mkvmerge v8.3.0 ('Over the Horizon') 64bit
_STATISTICS_WRITING_DATE_UTC : 2015-11-02 18:02:39
_STATISTICS_TAGS : BPS DURATION NUMBER_OF_FRAMES NUMBER_OF_BYTES
Video
ID : 1
Format : AVC
Format/Info : Advanced Video Codec
Format profile : High@L4.1
Format settings, CABAC : Yes
Format settings, ReFrames : 11 frames
Codec ID : V_MPEG4/ISO/AVC
Duration : 2h 22mn
Bit rate : 3 301 Kbps
Width : 720 pixels
Height : 576 pixels
Display aspect ratio : 4:3
Frame rate mode : Constant
Frame rate : 25.000 fps
Standard : PAL
Color space : YUV
Chroma subsampling : 4:2:0
Bit depth : 8 bits
Scan type : Progressive
Bits/(Pixel*Frame) : 0.318
Stream size : 3.29 GiB (93%)
Writing library : x264 core 146 r2538 121396c
Encoding settings : cabac=1 / ref=11 / deblock=1:-2:-2 / analyse=0x3:0x133 / me=umh / subme=11 / psy=1 / psy_rd=1.10:0.40 / mixed_ref=1 / me_range=32 / chroma_me=1 / trellis=2 / 8x8dct=1 / cqm=0 / deadzone=21,11 / fast_pskip=0 / chroma_qp_offset=-4 / threads=6 / lookahead_threads=1 / sliced_threads=0 / nr=0 / decimate=1 / interlaced=0 / bluray_compat=0 / constrained_intra=0 / bframes=8 / b_pyramid=2 / b_adapt=2 / b_bias=0 / direct=1 / weightb=1 / open_gop=0 / weightp=2 / keyint=250 / keyint_min=25 / scenecut=40 / intra_refresh=0 / rc_lookahead=40 / rc=crf / mbtree=0 / crf=20.0 / qcomp=1.00 / qpmin=0 / qpmax=69 / qpstep=4 / vbv_maxrate=62500 / vbv_bufsize=78125 / crf_max=0.0 / nal_hrd=none / filler=0 / ip_ratio=1.40 / pb_ratio=1.30 / aq=3:0.80
Language : Russian
Default : Yes
Forced : No
Color range : Full
Color primaries : BT.601 PAL
Transfer characteristics : BT.470 System B, BT.470 System G
Matrix coefficients : BT.601
DURATION : 02:22:31.080000000
NUMBER_OF_FRAMES : 213777
NUMBER_OF_BYTES : 3601800514
_STATISTICS_WRITING_APP : mkvmerge v8.3.0 ('Over the Horizon') 64bit
_STATISTICS_WRITING_DATE_UTC : 2015-11-02 18:02:39
_STATISTICS_TAGS : BPS DURATION NUMBER_OF_FRAMES NUMBER_OF_BYTES
Audio
ID : 2
Format : AC-3
Format/Info : Audio Coding 3
Mode extension : CM (complete main)
Format settings, Endianness : Big
Codec ID : A_AC3
Duration : 2h 22mn
Bit rate mode : Constant
Bit rate : 192 Kbps
Channel(s) : 2 channels
Channel positions : Front: L R
Sampling rate : 48.0 KHz
Compression mode : Lossy
Stream size : 196 MiB (5%)
Title : AC3 | 48 kHz | 2.0, 192 kbps; Оригинал
Language : Russian
Default : Yes
Forced : No
MI Disk 3
General
Unique ID : 174072187487388966647149480974524448233 (0x82F515765257E283824A96ABBCB17DE9)
Complete name : Disk.3.Teenager.1983.x264.mkv
Format : Matroska
Format version : Version 4 / Version 2
File size : 3.10 GiB
Duration : 2h 26mn
Overall bit rate : 3 039 Kbps
Encoded date : UTC 2015-11-03 14:57:31
Writing application : mkvmerge v8.3.0 ('Over the Horizon') 64bit
Writing library : libebml v1.3.1 + libmatroska v1.4.2
DURATION : 02:26:14.816000000
NUMBER_OF_FRAMES : 274213
NUMBER_OF_BYTES : 210595584
_STATISTICS_WRITING_APP : mkvmerge v8.3.0 ('Over the Horizon') 64bit
_STATISTICS_WRITING_DATE_UTC : 2015-11-03 14:57:31
_STATISTICS_TAGS : BPS DURATION NUMBER_OF_FRAMES NUMBER_OF_BYTES
Video
ID : 1
Format : AVC
Format/Info : Advanced Video Codec
Format profile : High@L4.1
Format settings, CABAC : Yes
Format settings, ReFrames : 11 frames
Codec ID : V_MPEG4/ISO/AVC
Duration : 2h 26mn
Bit rate : 2 787 Kbps
Width : 720 pixels
Height : 576 pixels
Display aspect ratio : 4:3
Frame rate mode : Constant
Frame rate : 25.000 fps
Standard : PAL
Color space : YUV
Chroma subsampling : 4:2:0
Bit depth : 8 bits
Scan type : Progressive
Bits/(Pixel*Frame) : 0.269
Stream size : 2.85 GiB (92%)
Writing library : x264 core 146 r2538 121396c
Encoding settings : cabac=1 / ref=11 / deblock=1:-2:-2 / analyse=0x3:0x133 / me=umh / subme=11 / psy=1 / psy_rd=1.10:0.40 / mixed_ref=1 / me_range=32 / chroma_me=1 / trellis=2 / 8x8dct=1 / cqm=0 / deadzone=21,11 / fast_pskip=0 / chroma_qp_offset=-4 / threads=6 / lookahead_threads=1 / sliced_threads=0 / nr=0 / decimate=1 / interlaced=0 / bluray_compat=0 / constrained_intra=0 / bframes=8 / b_pyramid=2 / b_adapt=2 / b_bias=0 / direct=1 / weightb=1 / open_gop=0 / weightp=2 / keyint=250 / keyint_min=25 / scenecut=40 / intra_refresh=0 / rc_lookahead=40 / rc=crf / mbtree=0 / crf=20.0 / qcomp=1.00 / qpmin=0 / qpmax=69 / qpstep=4 / vbv_maxrate=62500 / vbv_bufsize=78125 / crf_max=0.0 / nal_hrd=none / filler=0 / ip_ratio=1.40 / pb_ratio=1.30 / aq=3:0.80
Language : Russian
Default : Yes
Forced : No
Color range : Full
Color primaries : BT.601 PAL
Transfer characteristics : BT.470 System B, BT.470 System G
Matrix coefficients : BT.601
DURATION : 02:26:15.520000000
NUMBER_OF_FRAMES : 219388
NUMBER_OF_BYTES : 3121162185
_STATISTICS_WRITING_APP : mkvmerge v8.3.0 ('Over the Horizon') 64bit
_STATISTICS_WRITING_DATE_UTC : 2015-11-03 14:57:31
_STATISTICS_TAGS : BPS DURATION NUMBER_OF_FRAMES NUMBER_OF_BYTES
Audio
ID : 2
Format : AC-3
Format/Info : Audio Coding 3
Mode extension : CM (complete main)
Format settings, Endianness : Big
Codec ID : A_AC3
Duration : 2h 26mn
Bit rate mode : Constant
Bit rate : 192 Kbps
Channel(s) : 2 channels
Channel positions : Front: L R
Sampling rate : 48.0 KHz
Compression mode : Lossy
Stream size : 201 MiB (6%)
Title : AC3 | 48 kHz | 2.0, 192 kbps; Оригинал
Language : Russian
Default : Yes
Forced : No
x264 Log Disk 1
x264 [info]: profile High, level 4.1
x264 [info]: frame I:1180 Avg QP:16.76 size: 44950
x264 [info]: frame P:40783 Avg QP:18.01 size: 31643
x264 [info]: frame B:182678 Avg QP:20.98 size: 12206
x264 [info]: consecutive B-frames: 0.7% 0.6% 4.3% 5.4% 6.7% 77.1% 3.4% 1.0% 0.7%
x264 [info]: mb I I16..4: 6.0% 84.6% 9.5%
x264 [info]: mb P I16..4: 2.3% 39.4% 2.7% P16..4: 19.0% 20.9% 11.0% 2.9% 0.3% skip: 1.5%
x264 [info]: mb B I16..4: 0.6% 7.3% 0.3% B16..8: 30.2% 19.4% 3.8% direct:16.4% skip:22.0% L0:37.8% L1:26.5% BI:35.7%
x264 [info]: 8x8 transform intra:88.8% inter:43.7%
x264 [info]: coded y,uvDC,uvAC intra: 90.3% 80.5% 50.2% inter: 40.0% 34.5% 3.7%
x264 [info]: i16 v,h,dc,p: 50% 8% 9% 34%
x264 [info]: i8 v,h,dc,ddl,ddr,vr,hd,vl,hu: 16% 9% 32% 6% 6% 7% 6% 9% 10%
x264 [info]: i4 v,h,dc,ddl,ddr,vr,hd,vl,hu: 15% 8% 9% 9% 12% 14% 11% 11% 11%
x264 [info]: i8c dc,h,v,p: 32% 29% 26% 13%
x264 [info]: Weighted P-Frames: Y:42.4% UV:33.1%
x264 [info]: ref P L0: 31.4% 8.4% 15.8% 10.7% 8.0% 6.6% 5.3% 3.4% 3.1% 3.0% 2.8% 1.5% 0.1%
x264 [info]: ref B L0: 73.2% 11.8% 4.6% 3.0% 2.1% 1.8% 1.4% 1.1% 0.7% 0.4%
x264 [info]: ref B L1: 94.6% 5.4%
x264 [info]: kb/s:3375.39
x264 Log Disk 2
x264 [info]: profile High, level 4.1
x264 [info]: frame I:1174 Avg QP:17.03 size: 47351
x264 [info]: frame P:38949 Avg QP:18.30 size: 32403
x264 [info]: frame B:173654 Avg QP:21.59 size: 13153
x264 [info]: consecutive B-frames: 0.8% 0.6% 4.5% 5.6% 6.1% 77.7% 3.1% 1.0% 0.7%
x264 [info]: mb I I16..4: 6.5% 82.7% 10.8%
x264 [info]: mb P I16..4: 2.3% 34.5% 2.9% P16..4: 20.2% 22.9% 12.2% 3.3% 0.4% skip: 1.2%
x264 [info]: mb B I16..4: 0.5% 6.9% 0.3% B16..8: 30.5% 19.7% 3.7% direct:15.8% skip:22.5% L0:37.4% L1:27.1% BI:35.5%
x264 [info]: 8x8 transform intra:87.6% inter:44.5%
x264 [info]: coded y,uvDC,uvAC intra: 89.7% 83.1% 52.5% inter: 39.0% 35.9% 4.0%
x264 [info]: i16 v,h,dc,p: 54% 7% 9% 30%
x264 [info]: i8 v,h,dc,ddl,ddr,vr,hd,vl,hu: 17% 9% 30% 6% 6% 7% 6% 9% 10%
x264 [info]: i4 v,h,dc,ddl,ddr,vr,hd,vl,hu: 15% 8% 9% 9% 12% 14% 11% 12% 11%
x264 [info]: i8c dc,h,v,p: 33% 28% 26% 14%
x264 [info]: Weighted P-Frames: Y:43.4% UV:34.2%
x264 [info]: ref P L0: 32.2% 8.2% 15.9% 10.5% 7.8% 6.5% 5.2% 3.3% 3.0% 2.9% 2.7% 1.6% 0.1%
x264 [info]: ref B L0: 74.0% 12.0% 4.5% 2.8% 2.0% 1.7% 1.2% 0.9% 0.6% 0.3%
x264 [info]: ref B L1: 94.6% 5.4%
x264 [info]: kb/s:3563.68
x264 Log Disk 3
x264 [info]: profile High, level 4.1
x264 [info]: frame I:1124 Avg QP:16.46 size: 43413
x264 [info]: frame P:40275 Avg QP:17.85 size: 27593
x264 [info]: frame B:177989 Avg QP:21.41 size: 11018
x264 [info]: consecutive B-frames: 0.7% 0.7% 5.2% 5.4% 6.0% 77.2% 3.1% 0.9% 0.7%
x264 [info]: mb I I16..4: 8.1% 80.7% 11.2%
x264 [info]: mb P I16..4: 2.6% 28.9% 2.9% P16..4: 23.4% 25.2% 11.8% 2.9% 0.3% skip: 2.1%
x264 [info]: mb B I16..4: 0.5% 4.7% 0.3% B16..8: 32.0% 19.5% 3.5% direct:13.5% skip:26.1% L0:40.5% L1:30.8% BI:28.7%
x264 [info]: 8x8 transform intra:84.4% inter:43.7%
x264 [info]: coded y,uvDC,uvAC intra: 84.3% 81.4% 53.8% inter: 32.1% 31.4% 4.1%
x264 [info]: i16 v,h,dc,p: 58% 7% 8% 26%
x264 [info]: i8 v,h,dc,ddl,ddr,vr,hd,vl,hu: 16% 9% 32% 6% 6% 7% 6% 9% 10%
x264 [info]: i4 v,h,dc,ddl,ddr,vr,hd,vl,hu: 15% 8% 10% 9% 12% 14% 10% 12% 11%
x264 [info]: i8c dc,h,v,p: 36% 27% 24% 14%
x264 [info]: Weighted P-Frames: Y:39.2% UV:30.8%
x264 [info]: ref P L0: 33.2% 7.4% 16.5% 10.2% 7.9% 6.4% 5.2% 3.2% 3.0% 2.8% 2.7% 1.4% 0.1%
x264 [info]: ref B L0: 73.0% 12.4% 4.7% 2.9% 2.1% 1.7% 1.3% 0.9% 0.6% 0.4%
x264 [info]: ref B L1: 94.2% 5.8%
x264 [info]: kb/s:2845.33
Скриншоты Disk 1 Скриншоты Disk 2 Скриншоты Disk 3 P.S.: Приятного просмотра!
Скачать

Скачать торрент!

Как скачивать? · Что такое торрент? · Рейтинг и ограничения

Сайт не распространяет и не хранит электронные версии произведений, а лишь предоставляет доступ к создаваемому пользователями каталогу ссылок на торрент-файлы, которые содержат только списки хеш-сумм

[Профиль] [ЛС]
Показать сообщения:    
Ответить на тему

Текущее время: Сегодня 11:52

Часовой пояс: GMT + 4



Вы не можете начинать темы
Вы не можете отвечать на сообщения
Вы не можете редактировать свои сообщения
Вы не можете удалять свои сообщения
Вы не можете голосовать в опросах
Вы не можете прикреплять файлы к сообщениям
Вы не можете скачивать файлы