Хрусталик и пингвин / Камешек и пингвин / The Pebble and the Penguin (Дон Блат, Гари Голдман / Don Bluth, Gary Goldman) [1995, Ирландия, США, приключения, семейный, мультфильм, BDRip] Dub + MVO + Original Eng + eng sub

Ответить на тему
 
Автор Сообщение

user ®

Стаж: 12 лет

Сообщений: 15145

Пост Пост: #1 от 12-Ноя-2015 12:03

[Цитировать]

Камешек и пингвин / Хрусталик и пингвин / The Pebble and the Penguin- Страна: Ирландия, США
Жанр: приключения, семейный, мультфильм
Продолжительность: 01:14:04
Год выпуска: 1995
Перевод 1: Профессиональный (дублированный) - Варус Видео
Перевод 2: Профессиональный (многоголосый закадровый) - по заказу "Первого канала"
Русские субтитры: нет
Режиссёр: Дон Блат, Гари Голдман / Don Bluth, Gary Goldman
В ролях: Мартин Шорт, Энни Голден, Джеймс Белуши, Тим Карри, Алисса Кинг, Стиви Вэлланс...
Описание: Милый и застенчивый пингвин Хьюби мечтает сыграть свадьбу со своей возлюбленной Мариной. Он даже придумал, что подарить ей на брачной церемонии, - маленький изумруд. Но планы Хьюби разрушает другой пернатый житель Антарктиды, Дрейк, который тоже стремится завладеть сердцем Марины. Соперник похищает драгоценность и сбрасывает Хьюби в воду, прямо в сети браконьеров! У пленника остаются считанные часы, чтобы сбежать с корабля, вернуться домой и помешать свадьбе Марины и Дрейка.- | Сэмпл | Совместный релиз: и -Выражаю благодарность от имени всех любителей мультяшек:
- За исходный блюрей из личной коллекции - DFCbit.
- За оцифровку дубляжа "Варус Видео" с VHS Hi-Fi - bora86bora и formally.
- За запись перевода "Первого канала" с канала "Дисней" - xfiles.
- За сборку, обработку, подгонку, синхронизацию звука - xfiles.-Качество: BDRip (Исходник BDRemux 1080p)
Формат: AVI
Видео: 720x384 (1.88:1), 23.976 fps, XviD ~2132 kbps, 0.32 bit/pixel
Аудио #1: Russian, 48 kHz, AC3, 2/0 (L,R) ch, ~192 kbps - Дубляж | "Варус Видео" | VHS Hi-Fi
Аудио #2: Russian, 48 kHz, AC3, 1/0 (C) ch, ~96 kbps - Закадровый | По заказу "Первого канала" | Канал "Дисней"
Аудио #3: English, 48.0 KHz, AC3, 5.0 ch, ~384 kbps - Original
Субтитры: English, UTF-8 - [SDH]

MediaInfo
GeneralComplete name : The.Pebble.and.the.Penguin.1995.BDRip_Olu6ka.aviFormat : AVIFormat/Info : Audio Video InterleaveFile size : 1.46 GiBDuration : 1h 14mnOverall bit rate : 2 825 KbpsWriting application : VirtualDubModRus 1.5.10.2 (build 2542/release)Writing library : VirtualDubMod build 2542/release
VideoID : 0Format : MPEG-4 VisualFormat profile : Advanced Simple@L5Format settings, BVOP : 1Format settings, QPel : NoFormat settings, GMC : No warppointsFormat settings, Matrix : CustomCodec ID : XVIDCodec ID/Hint : XviDDuration : 1h 14mnBit rate : 2 134 KbpsWidth : 720 pixelsHeight : 384 pixelsDisplay aspect ratio : 1.85:1Frame rate : 23.976 fpsColor space : YUVChroma subsampling : 4:2:0Bit depth : 8 bitsScan type : ProgressiveCompression mode : LossyBits/(Pixel*Frame) : 0.322Stream size : 1.10 GiB (76%)Writing library : XviD 73
Audio #1ID : 1Format : AC-3Format/Info : Audio Coding 3Mode extension : CM (complete main)Format settings, Endianness : BigCodec ID : 2000Duration : 1h 14mnBit rate mode : ConstantBit rate : 192 KbpsChannel(s) : 2 channelsChannel positions : Front: L RSampling rate : 48.0 KHzBit depth : 16 bitsCompression mode : LossyStream size : 102 MiB (7%)Alignment : Split accross interleavesInterleave, duration : 42 ms (1.00 video frame)Interleave, preload duration : 500 ms
Audio #2ID : 2Format : AC-3Format/Info : Audio Coding 3Mode extension : CM (complete main)Format settings, Endianness : BigCodec ID : 2000Duration : 1h 14mnBit rate mode : ConstantBit rate : 96.0 KbpsChannel(s) : 1 channelChannel positions : Front: CSampling rate : 48.0 KHzBit depth : 16 bitsCompression mode : LossyStream size : 50.9 MiB (3%)Alignment : Split accross interleavesInterleave, duration : 42 ms (1.00 video frame)Interleave, preload duration : 500 ms
Audio #3ID : 3Format : AC-3Format/Info : Audio Coding 3Mode extension : CM (complete main)Format settings, Endianness : BigCodec ID : 2000Duration : 1h 14mnBit rate mode : ConstantBit rate : 384 KbpsChannel(s) : 5 channelsChannel positions : Front: L C R, Side: L RSampling rate : 48.0 KHzBit depth : 16 bitsCompression mode : LossyStream size : 203 MiB (14%)Alignment : Split accross interleavesInterleave, duration : 42 ms (1.00 video frame)Interleave, preload duration : 500 ms
Скриншоты Сравнение
Без претензий на поглощение!!!!!!!!
Просто для сравнения качества видео - мое не хуже ))))
[url=http://***/forum/viewtopic.php?t=3835861]http://***/forum/viewtopic.php?t=3835861[/url]
http://screenshotcomparison.com/comparison/150154
Скачать

Скачать торрент! Хрусталик и пингвин / Камешек и пингвин / The Pebble and the Penguin (Дон Блат, Гари Голдман / Don Bluth, Gary Goldman) [1995, Ирландия, США, приключения, семейный, мультфильм, BDRip] Dub + MVO + Original Eng + eng sub

Как скачивать? · Что такое торрент? · Рейтинг и ограничения

Сайт не распространяет и не хранит электронные версии произведений, а лишь предоставляет доступ к создаваемому пользователями каталогу ссылок на торрент-файлы, которые содержат только списки хеш-сумм

[Профиль] [ЛС]
Показать сообщения:    
Ответить на тему

Текущее время: Сегодня 20:49

Часовой пояс: GMT + 4



Вы не можете начинать темы
Вы не можете отвечать на сообщения
Вы не можете редактировать свои сообщения
Вы не можете удалять свои сообщения
Вы не можете голосовать в опросах
Вы не можете прикреплять файлы к сообщениям
Вы не можете скачивать файлы