Белые горы (Мелис Убукеев) [1964, Драма, DVDRip-AVC, AVC]

Ответить на тему
 
Автор Сообщение

user ®

Стаж: 7 лет 7 месяцев

Сообщений: 20008

Пост Пост: #1 от 12-Ноя-2015 12:03

[Цитировать]

Белые горы (Трудная переправа)
Жанр: Драма
Год выпуска: 1964
Продолжительность: 01:03:12
Режиссёр: Мелис Убукеев
В ролях: Шайирбек Кобегенов, А. Абаева, Бакен Кыдыкеева, Муратбек Рыскулов, Болот Бейшеналиев, Вячеслав Жариков, К. Рысмендиева, Советбек Джумадылов, Амангельды Айталиев, Рудольф Панков, Толеш Океев
Описание: 1918 год. Ожесточенная борьба с феодальной знатью за установление народной власти в Киргизии. В центре трагическая судьба бедного юноши Мукаша, который решил спасти свою любимую Уулджан, проданную в жены богачу.

Релиз:
[url=http://***/forum/viewtopic.php?t=3862759] [/url]
Качество видео: DVDRip-AVC
Формат видео: MKV
Видео: AVC, 1420 kbps, 694 x 572 @ 740 x 572, 25 fps
Аудио: Русский, AC-3, 224 kbps, 2 ch, 48 kHz
Субтитры: Английские, VobSub
MediaInfo
Общее
Уникальный идентификатор :
220515661081155490314118161036005610825
(0xA5E5C58041160B20905A4BC8A3501549)
Полное имя : D:\00-Белые горы\Белые
горы-DVDRip-AVC-MG.mkv
Формат : Matroska
Версия формата : Version 4 / Version 2
Размер файла : 745 Мбайт
Продолжительность : 1 ч. 3 м.
Общий поток : 1648 Кбит/сек
Дата кодирования : UTC 2015-11-11 16:39:53
Программа кодирования : mkvmerge v8.5.2
('Crosses') 64bit
Библиотека кодирования : libebml v1.3.3 +
libmatroska v1.4.4
DURATION : 01:03:04.998000000
NUMBER_OF_FRAMES : 323
NUMBER_OF_BYTES : 1299620
_STATISTICS_WRITING_APP : mkvmerge v8.5.2
('Crosses') 64bit
_STATISTICS_WRITING_DATE_UTC : 2015-11-11
16:39:53
_STATISTICS_TAGS : BPS DURATION
NUMBER_OF_FRAMES NUMBER_OF_BYTES
Видео
Идентификатор : 1
Формат : AVC
Формат/Информация : Advanced Video Codec
Профиль формата : High@L4.1
Параметр CABAC формата : Да
Параметр ReFrames формата : 9 кадров
Идентификатор кодека : V_MPEG4/ISO/AVC
Продолжительность : 1 ч. 3 м.
Битрейт : 1420 Кбит/сек
Ширина : 694 пикселя
Высота : 572 пикселя
Соотношение сторон : 1,294
Режим частоты кадров : Постоянный
Частота кадров : 25,000 кадров/сек
Цветовое пространство : YUV
Субдискретизация насыщенности : 4:2:0
Битовая глубина : 8 бит
Тип развёртки : Прогрессивная
Бит/(Пиксели*Кадры) : 0.143
Размер потока : 629 Мбайт (84%)
Заголовок : For ***
Библиотека кодирования : x264 core 146 r2538
121396c
Настройки программы : cabac=1 / ref=9 /
deblock=1:-1:-1 / analyse=0x3:0x133 / me=umh / subme=9 /psy=1 / psy_rd=1.00:0.15 / mixed_ref=1 / me_range=32 /chroma_me=1 / trellis=2 / 8x8dct=1 / cqm=0 / deadzone=21,11 /fast_pskip=0 / chroma_qp_offset=-3 / threads=6 /lookahead_threads=1 / sliced_threads=0 / nr=0 / decimate=1 /interlaced=0 / bluray_compat=0 / constrained_intra=0 /bframes=7 / b_pyramid=2 / b_adapt=2 / b_bias=0 / direct=3 /weightb=1 / open_gop=0 / weightp=2 / keyint=250 /keyint_min=25 / scenecut=40 / intra_refresh=0 /rc_lookahead=40 / rc=2pass / mbtree=1 / bitrate=1420 /ratetol=1.0 /qcomp=0.60 / qpmin=10 / qpmax=51 / qpstep=4 /cplxblur=20.0 / qblur=0.5 / ip_ratio=1.40 / aq=1:1.00
Язык : Russian
Default : Да
Forced : Нет
Аудио
Идентификатор : 2
Формат : AC-3
Формат/Информация : Audio Coding 3
Расширение режима : CM (complete main)
Параметр Endianness формата : Big
Идентификатор кодека : A_AC3
Продолжительность : 1 ч. 3 м.
Вид битрейта : Постоянный
Битрейт : 224 Кбит/сек
Каналы : 2 канала
Расположение каналов : Front: L R
Частота : 48,0 КГц
Метод сжатия : С потерями
Размер потока : 101 Мбайт (14%)
Заголовок : AC3-2 канала
Язык : Russian
Default : Да
Forced : Нет
Текст
Идентификатор : 3
Формат : VobSub
Идентификатор кодека : S_VOBSUB
Идентификатор кодека/Информация : Picture based
subtitle format used on DVDs
Заголовок : VobSub
Язык : English
Default : Нет
Forced : Нет
Скриншот c названием фильма Скриншоты Прошу учесть!
Раздавать могу
только
с 23:00 до 5:00 по Москве
Спасибо всем!
Скачать

Скачать торрент!

Как скачивать? · Что такое торрент? · Рейтинг и ограничения

Сайт не распространяет и не хранит электронные версии произведений, а лишь предоставляет доступ к создаваемому пользователями каталогу ссылок на торрент-файлы, которые содержат только списки хеш-сумм

[Профиль] [ЛС]
Показать сообщения:    
Ответить на тему

Текущее время: Сегодня 07:07

Часовой пояс: GMT + 4



Вы не можете начинать темы
Вы не можете отвечать на сообщения
Вы не можете редактировать свои сообщения
Вы не можете удалять свои сообщения
Вы не можете голосовать в опросах
Вы не можете прикреплять файлы к сообщениям
Вы не можете скачивать файлы