Красавица / Сестрички / Khubsoorat (Ришикеш Мукхерджи / Hrishikesh Mukherjee) [1980, Индия, Мелодрама, драма, комедия, HDRip] MVO (Формат АВ)

Ответить на тему
 
Автор Сообщение

user ®

Стаж: 12 лет

Сообщений: 15092

Пост Пост: #1 от 11-Ноя-2015 17:30

[Цитировать]

Красавица / Сестрички / Khubsoorat
Страна: Индия
Жанр: Мелодрама, драма, комедия
Год выпуска: 1980
Продолжительность: 02:26:32
Перевод: Профессиональный (многоголосый закадровый) Формат АВ
Cубтитры: нет
Режиссер: Ришикеш Мукхерджи / Hrishikesh Mukherjee
В ролях: Ашок Кумар, Рекха, Ракеш Рошан, Шашикала, Арадана, Дина Патхак, Дэвид Абрахам, С.Н. Банерджи, Кешто Мукхерджи, Амарнатх
Описание: Рам Даял - пожилой вдовец, живущий в Бомбее с двумя дочерьми - Анжу и Манжу. Семейство живет по строгому укладу и правилам, заложенным еще матерью. Но дочери искренне любят отца, который окружил их атмосферой жизнерадостности, учащий их жить независимо и самостоятельно. Это простая, казалось бы, история семейного счастья, трогательная и романтичная, при этом поражает глубиной житейской мудрости. Для мира и счастья в семье не достаточно только любви, а любая свобода требует ответственности.
Доп. информация: Исходник BDRip (1080p) (СПАСИБО! jasinpapa)
Сведение звука: Переводман (Спасибо!)
Сэмпл: http://multi-up.com/1075023
Качество видео: HDRip
Формат видео: AVI
Видео: XviD build 50, 704x528 (1.33:1), 24 fps, 1448 kbps avg
Аудио: AC3 Dolby Digital, 48 kHz, 2/0 (L,R) ch, 192.00 kbps
MediaInfo
General
Complete name : F:\Krasavitsa.1980.XviD.HDRip-Dego.avi
Format : AVI
Format/Info : Audio Video Interleave
File size : 1.46 GiB
Duration : 2h 6mn
Overall bit rate : 1 650 Kbps
Writing application : VirtualDubMod 1.5.10.2 (build 2540/release)
Writing library : VirtualDubMod build 2540/release
Video
ID : 0
Format : MPEG-4 Visual
Format profile : AdvancedSimple@L5
Format settings, BVOP : Yes
Format settings, QPel : No
Format settings, GMC : No warppoints
Format settings, Matrix : Custom
Codec ID : XVID
Codec ID/Hint : XviD
Duration : 2h 6mn
Bit rate : 1 449 Kbps
Width : 704 pixels
Height : 528 pixels
Display aspect ratio : 4/3
Frame rate : 24.000 fps
Resolution : 24 bits
Colorimetry : 4:2:0
Scan type : Progressive
Bits/(Pixel*Frame) : 0.162
Stream size : 1.28 GiB (88%)
Writing library : XviD 1.2.1 (UTC 2008-12-04)
Audio
ID : 1
Format : AC-3
Format/Info : Audio Coding 3
Codec ID : 2000
Duration : 2h 6mn
Bit rate mode : Constant
Bit rate : 192 Kbps
Channel(s) : 2 channels
Channel positions : L R
Sampling rate : 48.0 KHz
Stream size : 174 MiB (12%)
Alignment : Split accross interleaves
Interleave, duration : 42 ms (1.00 video frame)
Interleave, preload duration : 500 ms
Скриншоты Сравнения
[url=http://***/forum/viewtopic.php?t=706377]http://***/forum/viewtopic.php?t=706377[/url] => http://screenshotcomparison.com/comparison/150076/picture:0 + Packed bitstream
перевод тот же
Скачать

Скачать торрент! Красавица / Сестрички / Khubsoorat (Ришикеш Мукхерджи / Hrishikesh Mukherjee) [1980, Индия, Мелодрама, драма, комедия, HDRip] MVO (Формат АВ)

Как скачивать? · Что такое торрент? · Рейтинг и ограничения

Сайт не распространяет и не хранит электронные версии произведений, а лишь предоставляет доступ к создаваемому пользователями каталогу ссылок на торрент-файлы, которые содержат только списки хеш-сумм

[Профиль] [ЛС]
Показать сообщения:    
Ответить на тему

Текущее время: Сегодня 12:58

Часовой пояс: GMT + 4



Вы не можете начинать темы
Вы не можете отвечать на сообщения
Вы не можете редактировать свои сообщения
Вы не можете удалять свои сообщения
Вы не можете голосовать в опросах
Вы не можете прикреплять файлы к сообщениям
Вы не можете скачивать файлы