Ласковый май (Владимир Виноградов) [2009, драма, музыкальный, биография, BDRip]

Ответить на тему
 
Автор Сообщение

user ®

Стаж: 7 лет 7 месяцев

Сообщений: 20008

Пост Пост: #1 от 10-Ноя-2015 01:15

[Цитировать]

Ласковый май
Жанр: Драма, музыкальный, биография
Год выпуска: 2009
Продолжительность: 01:54:48
Режиссёр: Владимир Виноградов
В ролях: Вячеслав Манучаров, Сергей Романович, Дмитрий Блохин, Виктор Вержбицкий, Людмила Зайцева, Раиса Конюхова, Максим Костромыкин, Максим Литовченко, Виктория Матвеева, Инга Оболдина, Марина Орел, Раиса Рязанова, Пётр Скворцов, Владимир Стеклов, Екатерина Федулова, Данила Чванов, Иван Агапов, Екатерина Садовская, Ольга Турутина, Александр Фисенко, Александр Нехороших, Виктор Бунаков
Описание: В 1985 году в Советском Союзе началась перестройка и появилась группа "Ласковый май". На их концертах были только аншлаги, от неразделённой любви к ним совершались самоубийства. Фигура Михаила Горбачёва меркла в лучах славы создателя "Ласкового мая" - Андрея Разина. Случайно сделанная фотография на пляже, где Андрей Разин, будучи ребенком, запечатлён с семьей Горбачёвых, перевернула его судьбу. Именно с помощью этой фотографии он стал племянником Горбачёва. Он заявил об этом не напрямую - так, намекнул, и ему мгновенно поверили. Функционеры всех рангов действовали без промедления: перед ним распахнулись двери телевидения и радио, советская эстрада легла к его ногам. Разин ездил по всем детским домам Советского Союза в поисках одарённых детей для своих групп-двойников. "Ласковый май" гастролировал одновременно в нескольких городах, давая в день по 5-6 концертов. За все десять лет существования группы не было ни одного не проданного или сданного билета, каждый пятый житель СССР побывал на их концертах. Прошло время, ушёл Горбачёв, развалился Советский Союз, закончилась эпоха "Ласкового мая", но до сих пор, под современные аранжировки их песен, зажигают на дискотеках современные тинэйджеры...
Доп. информация:
Сэмпл: http://multi-up.com/1066156
Исходник: [url=http://***/forum/viewtopic.php?t=4682794]http://***/forum/viewtopic.php?t=4682794[/url]
Формат видео: AVI
Качество видео: BDRip (Blu-ray)
Видео: XviD, 656х368, 24fps, 777kbps
Аудио: MPEG Layer 3, 2ch, 48000Hz, 128kbps
MediaInfo
General
Complete name : Laskovyi.Mai.2009.O.BDRip.700.CurHaJI.avi
Format : AVI
Format/Info : Audio Video Interleave
File size : 750 MiB
Duration : 1h 54mn
Overall bit rate : 913 Kbps
Movie name : Laskovyi.Mai.2009.O.BDRip.700.CurHaJI
Writing application : Lavf53.13.0
Writing library : VirtualDub build 35491/release
Video
ID : 0
Format : MPEG-4 Visual
Format profile : Advanced Simple@L5
Format settings, BVOP : 2
Format settings, QPel : No
Format settings, GMC : No warppoints
Format settings, Matrix : Custom
Codec ID : XVID
Codec ID/Hint : XviD
Duration : 1h 54mn
Bit rate : 777 Kbps
Width : 656 pixels
Height : 368 pixels
Display aspect ratio : 16:9
Frame rate : 24.000 fps
Color space : YUV
Chroma subsampling : 4:2:0
Bit depth : 8 bits
Scan type : Progressive
Compression mode : Lossy
Bits/(Pixel*Frame) : 0.134
Stream size : 637 MiB (85%)
Writing library : XviD 64
Audio
ID : 1
Format : MPEG Audio
Format version : Version 1
Format profile : Layer 3
Codec ID : 55
Codec ID/Hint : MP3
Duration : 1h 54mn
Bit rate mode : Constant
Bit rate : 128 Kbps
Channel(s) : 2 channels
Sampling rate : 48.0 KHz
Compression mode : Lossy
Stream size : 105 MiB (14%)
Alignment : Split accross interleaves
Interleave, duration : 42 ms (1.00 video frame)
Interleave, preload duration : 500 ms
Writing library : L3.99r
Encoding settings : -m s -V 4 -q 2 -lowpass 17 -b 128
Скриншоты
Скачать

Скачать торрент!

Как скачивать? · Что такое торрент? · Рейтинг и ограничения

Сайт не распространяет и не хранит электронные версии произведений, а лишь предоставляет доступ к создаваемому пользователями каталогу ссылок на торрент-файлы, которые содержат только списки хеш-сумм

[Профиль] [ЛС]
Показать сообщения:    
Ответить на тему

Текущее время: Сегодня 19:39

Часовой пояс: GMT + 4



Вы не можете начинать темы
Вы не можете отвечать на сообщения
Вы не можете редактировать свои сообщения
Вы не можете удалять свои сообщения
Вы не можете голосовать в опросах
Вы не можете прикреплять файлы к сообщениям
Вы не можете скачивать файлы