Девушка без комплексов / Trainwreck (Джудд Апатоу / Judd Apatow) [2015, США, мелодрама, комедия, BDRip-AVC] [Театральная версия] Dub + Original (Eng)

Ответить на тему
 
Автор Сообщение

user ®

Стаж: 7 лет 7 месяцев

Сообщений: 20008

Пост Пост: #1 от 10-Ноя-2015 01:15

[Цитировать]

Девушка без комплексов
Trainwreck
«Ни в чём себе не отказывай»
Театральная версия / Theatrical Cut



Страна: США
Жанр: мелодрама, комедия
Год выпуска: 2015
Продолжительность: 02:04:45
Перевод: Профессиональный (полное дублирование) [Лицензия iTunes]
Субтитры: нет
Оригинальная аудиодорожка: Английский
Режиссер: Джудд Апатоу / Judd Apatow
В ролях: Эми Шумер, Билл Хейдер, Бри Ларсон, Колин Куинн, Джон Сина, Ванесса Байер, Майк Бирбиглия, Эзра Миллер, Дэйв Аттелль, Тильда Суинтон, Леброн Джеймс, Девин Фабри
Описание:
У симпатичной девушки Эми никогда не было серьезных отношений. Она придерживается свободных взглядов и обычно не ходит дважды с одним парнем на свидание. Будучи сотрудницей крупного мужского издания, она получает задание от шефа написать статью о спортивном враче Ароне. Эми и не рассчитывала, что деловая встреча с доктором изменит ее жизнь.

Релиз:
Автор рипа: Stalker oK
Сэмпл
Качество видео: BDRip-AVC [Blu-ray Remux 1080p HDCLUB]
Формат видео: MKV
Видео кодек: AVC
Аудио кодек: AC3
Видео: 1733 Кбит/сек, 1032*430 (2,40:1), в 23,976 кадр/сек, AVC
Аудио #1: Russian, 384 Кбит/сек, 48,0 КГц, 16 бит, 6 канала(ов), AC-3
Аудио #2: English, 384 Кбит/сек, 48,0 КГц, 16 бит, 6 канала(ов), AC-3
Навигация по главам: есть

MediaInfo
Общее
Уникальный идентификатор : 240188289845308674307448297846603294012 (0xB4B294FC038296048E99AFA3C688A53C)
Полное имя : M:\Rips\Trainwreck\Trainwreck.2015.BDRip-AVC.Dub.2.18Gb...stalkerok.new-team.mkv
Формат : Matroska
Размер файла : 2,18 Гбайт
Продолжительность : 2 ч. 4 м.
Общий поток : 2500 Кбит/сек
Название фильма : Trainwreck (2015) (New-Team) (Rip by Stalker oK)
Дата кодирования : UTC 2015-11-06 20:51:58
Программа кодирования : mkvmerge v7.9.0 ('Birds') 64bit
Библиотека кодирования : libebml v1.3.1 + libmatroska v1.4.2
Видео
Идентификатор : 1
Формат : AVC
Формат/Информация : Advanced Video Codec
Профиль формата : High@L4.1
Параметр CABAC формата : Да
Параметр ReFrames формата : 12 кадры
Идентификатор кодека : V_MPEG4/ISO/AVC
Продолжительность : 2 ч. 4 м.
Битрейт : 1733 Кбит/сек
Ширина : 1032 пикс.
Высота : 430 пикс.
Соотношение сторон : 2,40:1
Частота кадров : 23,976 кадр/сек
Цветовое пространство : YUV
Подвыборка цветности : 4:2:0
Битовая глубина : 8 бит
Тип развёртки : Прогрессивная
Бит/(Пиксели*Кадры) : 0.163
Размер потока : 1,47 Гбайт (67%)
Заголовок : Trainwreck (2015) (New-Team) (Rip by Stalker oK)
Библиотека кодирования : x264 core 146 r2538kMod 121396c
Настройки программы : cabac=1 / ref=12 / deblock=1:-3:-3 / analyse=0x3:0x133 / me=umh / subme=11 / psy=1 / fade_compensate=0.00 / psy_rd=1.00:0.10 / mixed_ref=1 / me_range=48 / chroma_me=1 / trellis=2 / 8x8dct=1 / cqm=0 / deadzone=21,11 / fast_pskip=0 / chroma_qp_offset=-3 / threads=12 / lookahead_threads=3 / sliced_threads=0 / nr=0 / decimate=0 / interlaced=0 / bluray_compat=0 / constrained_intra=0 / fgo=0 / bframes=12 / b_pyramid=2 / b_adapt=2 / b_bias=0 / direct=3 / weightb=1 / open_gop=0 / weightp=2 / keyint=240 / keyint_min=23 / scenecut=40 / intra_refresh=0 / rc_lookahead=60 / rc=2pass / mbtree=0 / bitrate=1733 / ratetol=1.0 / qcomp=0.70 / qpmin=0 / qpmax=69 / qpstep=4 / cplxblur=20.0 / qblur=0.5 / vbv_maxrate=50000 / vbv_bufsize=62500 / nal_hrd=none / filler=0 / ip_ratio=1.40 / pb_ratio=1.30 / aq=3:0.90
Аудио #1
Идентификатор : 2
Формат : AC-3
Формат/Информация : Audio Coding 3
Расширение режима : CM (complete main)
Идентификатор кодека : A_AC3
Продолжительность : 2 ч. 4 м.
Вид битрейта : Постоянный
Битрейт : 384 Кбит/сек
Канал(ы) : 6 канала(ов)
Расположение каналов : Front: L C R, Side: L R, LFE
Частота : 48,0 КГц
Битовая глубина : 16 бит
Метод сжатия : С потерями
Размер потока : 343 Мбайт (15%)
Язык : Russian
Аудио #2
Идентификатор : 3
Формат : AC-3
Формат/Информация : Audio Coding 3
Расширение режима : CM (complete main)
Идентификатор кодека : A_AC3
Продолжительность : 2 ч. 4 м.
Вид битрейта : Постоянный
Битрейт : 384 Кбит/сек
Канал(ы) : 6 канала(ов)
Расположение каналов : Front: L C R, Side: L R, LFE
Частота : 48,0 КГц
Битовая глубина : 16 бит
Метод сжатия : С потерями
Размер потока : 343 Мбайт (15%)
Язык : English
Меню
00:00:00.000 : en:Chapter 1
00:04:41.281 : en:Chapter 2
00:12:21.990 : en:Chapter 3
00:19:41.512 : en:Chapter 4
00:25:38.118 : en:Chapter 5
00:31:38.020 : en:Chapter 6
00:38:46.907 : en:Chapter 7
00:45:36.817 : en:Chapter 8
00:51:22.704 : en:Chapter 9
00:56:23.713 : en:Chapter 10
01:00:18.489 : en:Chapter 11
01:05:57.202 : en:Chapter 12
01:12:06.320 : en:Chapter 13
01:20:40.335 : en:Chapter 14
01:28:51.617 : en:Chapter 15
01:34:26.868 : en:Chapter 16
01:39:08.024 : en:Chapter 17
01:46:17.412 : en:Chapter 18
01:54:06.506 : en:Chapter 19
01:59:10.268 : en:Chapter 20
Скриншоты
Скачать

Скачать торрент!

Как скачивать? · Что такое торрент? · Рейтинг и ограничения

Сайт не распространяет и не хранит электронные версии произведений, а лишь предоставляет доступ к создаваемому пользователями каталогу ссылок на торрент-файлы, которые содержат только списки хеш-сумм

[Профиль] [ЛС]
Показать сообщения:    
Ответить на тему

Текущее время: Сегодня 02:16

Часовой пояс: GMT + 4



Вы не можете начинать темы
Вы не можете отвечать на сообщения
Вы не можете редактировать свои сообщения
Вы не можете удалять свои сообщения
Вы не можете голосовать в опросах
Вы не можете прикреплять файлы к сообщениям
Вы не можете скачивать файлы