Круг / Circle (Аарон Ханн / Aaron Hann, Марио Мисионе / Mario Miscione) [2015, США, драма, фантастика, триллер, HDRip] Original Eng + Sub Rus

Ответить на тему
 
Автор Сообщение

user ®

Стаж: 7 лет 7 месяцев

Сообщений: 20008

Пост Пост: #1 от 09-Ноя-2015 12:51

[Цитировать]

Круг / Circle
«Fifty strangers held captive are forced to choose one person among them to survive execution»
Страна: США
Жанр: драма, фантастика, триллер
Год выпуска: 2015
Продолжительность: 01:26:26
Перевод: Субтитры. Автор - Vova Ramone
Cубтитры: русские
Оригинальная аудиодорожка: английская
Режиссеры: Аарон Ханн / Aaron Hann, Марио Мисионе / Mario Miscione
В ролях: Джули Бенц, Мерси Мэлик, Сара Сэндерсон, Картер Дженкинс, Майкл Нарделли, Лиза Пеликан, Молли Джексон, Захари Джеймс Рукавина, Лоуренс Као, Сесар Гарсиа Гомес.
Описание: Пятьдесят незнакомцев просыпаются в огромной камере, не имея понятия о том, как попали сюда. Собранные в круг и не способные двигаться, они быстро понимают, что каждые две минуты одного из них будет убивать странное устройство в центре комнаты. Вскоре им становится ясно, что жертва выбирается не случайно, а ими самими, что они могут коллективно влиять на выбор, который делает машина. Но как решить, кто заслуживает умереть? И что будет, когда останется лишь один человек?

Доп. информация:
Англоязычный DVDrip - с иностранного трекера (раздача harks87)
За субтитры большая благодарность [url=http://***/forum/profile.php?mode=viewprofile&u=12470484]bg-nomad[/url]

Качество видео: HDRip
Формат видео: AVI
Видео: 720x304 (2.37:1), 23.976 fps, XviD build 73 ~1829 kbps avg, 0.35 bit/pixel
Аудио: 48 kHz, AC3 Dolby Digital, 3/2 (L,C,R,l,r) + LFE ch, ~448 kbps - English
Формат субтитров: softsub (SRT)
Доп. информация о субтитрах: без мата
MediaInfo
General
Complete name : D:\Public\Circle.2015.HDRip.XviD.AC3-iFT (sub rus)\Circle.2015.HDRip.XviD.AC3-iFT.avi
Format : AVI
Format/Info : Audio Video Interleave
File size : 1.38 GiB
Duration : 1h 26mn
Overall bit rate : 2 287 Kbps
Video
ID : 0
Format : MPEG-4 Visual
Format profile : Advanced Simple@L5
Format settings, BVOP : 2
Format settings, QPel : No
Format settings, GMC : No warppoints
Format settings, Matrix : Default (H.263)
Codec ID : XVID
Codec ID/Hint : XviD
Duration : 1h 26mn
Bit rate : 1 830 Kbps
Width : 720 pixels
Height : 304 pixels
Display aspect ratio : 2.35:1
Frame rate : 23.976 fps
Color space : YUV
Chroma subsampling : 4:2:0
Bit depth : 8 bits
Scan type : Progressive
Compression mode : Lossy
Bits/(Pixel*Frame) : 0.349
Stream size : 1.11 GiB (80%)
Writing library : XviD 73
Audio
ID : 1
Format : AC-3
Format/Info : Audio Coding 3
Mode extension : CM (complete main)
Codec ID : 2000
Duration : 1h 26mn
Bit rate mode : Constant
Bit rate : 448 Kbps
Channel(s) : 6 channels
Channel positions : Front: L C R, Side: L R, LFE
Sampling rate : 48.0 KHz
Bit depth : 16 bits
Compression mode : Lossy
Stream size : 277 MiB (20%)
Alignment : Split accross interleaves
Interleave, duration : 42 ms (1.00 video frame)
Interleave, preload duration : 500 ms
Title : English
Скриншот c названием фильма Скриншоты Фрагмент субтитров
635
00:32:23,242 --> 00:32:25,075
Какого черта сейчас произошло?
636
00:32:25,077 --> 00:32:26,643
- У них было поровну.
- Как?
637
00:32:26,645 --> 00:32:29,646
У нас у всех одинаковое
количество голосов, так?
638
00:32:29,648 --> 00:32:32,215
Нет, не так.
639
00:32:32,217 --> 00:32:33,583
Откуда ты знаешь?
640
00:32:33,585 --> 00:32:36,453
- Потому что я голосовал против него.
- Что? Что ты...
641
00:32:36,455 --> 00:32:37,721
Зачем ты это сделал?
642
00:32:37,723 --> 00:32:39,389
Потому что он голосовал
против беременной девушки.
643
00:32:39,391 --> 00:32:40,657
Я видел его.
644
00:32:40,659 --> 00:32:42,159
Если бы я не проголосовал против
него, она была бы мертва.
645
00:32:42,161 --> 00:32:45,062
- Ты уверен?
- Да.
646
00:32:45,064 --> 00:32:47,798
Зачем он это сделал?
647
00:32:47,800 --> 00:32:49,766
Послушайте...
648
00:32:49,768 --> 00:32:55,205
Мы все знаем, что мы не можем
голосовать за самих себя, так?
649
00:32:55,207 --> 00:32:59,476
Ну так... что вы думаете произойдет
650
00:32:59,478 --> 00:33:02,245
когда мы дойдем до
последнего оставшегося человека?
651
00:33:07,518 --> 00:33:09,686
Один из нас останется жить.
652
00:33:11,422 --> 00:33:12,689
Это игра.
653
00:33:12,691 --> 00:33:14,224
Это принцип выживания.
654
00:33:14,226 --> 00:33:16,460
Последний оставшийся получит
возможность уйти отсюда живым.
655
00:33:16,462 --> 00:33:18,195
Или оставшаяся.
Скачать

Скачать торрент!

Как скачивать? · Что такое торрент? · Рейтинг и ограничения

Сайт не распространяет и не хранит электронные версии произведений, а лишь предоставляет доступ к создаваемому пользователями каталогу ссылок на торрент-файлы, которые содержат только списки хеш-сумм

[Профиль] [ЛС]
Показать сообщения:    
Ответить на тему

Текущее время: Сегодня 20:04

Часовой пояс: GMT + 4



Вы не можете начинать темы
Вы не можете отвечать на сообщения
Вы не можете редактировать свои сообщения
Вы не можете удалять свои сообщения
Вы не можете голосовать в опросах
Вы не можете прикреплять файлы к сообщениям
Вы не можете скачивать файлы