Будь мужчиной / Будь мужиком / Man Up (Бен Палмер / Ben Palmer) [2015, Великобритания, Франция, романтическая мелодрама, комедия, HDRip] Sub Rus + Original Eng

Ответить на тему
 
Автор Сообщение

user ®

Стаж: 7 лет 7 месяцев

Сообщений: 20008

Пост Пост: #1 от 09-Ноя-2015 12:51

[Цитировать]

Будь мужчиной / Будь мужиком / Man Up
Страна: Великобритания, Франция
Жанр: романтическая мелодрама, комедия
Год выпуска: 2015
Продолжительность: 01:27:55
Перевод: Субтитры
Cубтитры: русские
Оригинальная аудиодорожка: английский
Режиссер: Бен Палмер / Ben Palmer
В ролях: Саймон Пегг, Лэйк Белл, Оливия Уильямс, Генри Ллойд-Хьюз, Офелия Ловибонд, Рори Киннер, Шэрон Хорган, Стивен Кэмпбелл Мур, Дин-Чарльз Чепмен, Кен Стотт и другие.
Описание: Одинокая женщина по ошибке попадает на свидание вслепую, которое помогает ей найти идеального бойфренда.
Доп. информация: От режиссёра : [url=http://***/forum/viewtopic.php?t=5047201]http://***/forum/viewtopic.php?t=5047201[/url]
Перевод: Pandem, Polmila
Рекомендовано к просмотру поклонникам творчества Саймона Пегга
http://www.kinopoisk.ru/film/784455/
Сэмпл: https://www.sendspace.com/file/9oz4mp
Качество видео: HDRip
Формат видео: AVI
Видео: 700x304 (2.35:1), 24 fps, XviD MPEG-4 ~1901 kbps avg
Аудио: AC3, 48 KHz, 384 kb/s (6 ch)
Формат субтитров: softsub (SRT)
MediaInfo
D:\Будь мужиком\Man.Up.2015.HDRip.avi
General
Complete name : D:\Будь мужиком\Man.Up.2015.HDRip.avi
Format : AVI
Format/Info : Audio Video Interleave
File size : 1.41 GiB
Duration : 1h 27mn
Overall bit rate : 2 294 Kbps
Video #0
ID : 0
Format : MPEG-4 Visual
Format profile : Advanced Simple@L5
Format settings, BVOP : 2
Format settings, QPel : No
Format settings, GMC : No warppoints
Format settings, Matrix : Default (H.263)
Codec ID : XVID
Codec ID/Hint : XviD
Duration : 1h 27mn
Bit rate : 1 901 Kbps
Width : 700 pixels
Height : 304 pixels
Display aspect ratio : 2.35:1
Frame rate : 24.000 fps
Color space : YUV
Chroma subsampling : 4:2:0
Bit depth : 8 bits
Scan type : Progressive
Compression mode : Lossy
Bits/(Pixel*Frame) : 0.372
Stream size : 1.17 GiB (83%)
Writing library : XviD 66
Audio #1
ID : 1
Format : AC-3
Format/Info : Audio Coding 3
Mode extension : CM (complete main)
Format settings, Endianness : Big
Codec ID : 2000
Duration : 1h 27mn
Bit rate mode : Constant
Bit rate : 384 Kbps
Channel(s) : 6 channels
Channel positions : Front: L C R, Side: L R, LFE
Sampling rate : 48.0 KHz
Compression mode : Lossy
Stream size : 242 MiB (17%)
Alignment : Split accross interleaves
Interleave, duration : 42 ms (1.00 video frame)
Interleave, preload duration : 500 ms
Скриншот c названием фильма Скриншоты Пример субтитров :
скрытый текст
671
00:39:51,960 --> 00:39:54,500
- Что?
- Ты даже не знаешь, что такое триатлон!
672
00:39:54,600 --> 00:39:55,980
- Нет, знаю.
- Знаешь, уверена?
673
00:39:56,080 --> 00:39:58,367
- Да.
- Тогда на старт, внимание...
674
00:40:00,160 --> 00:40:01,764
марш!
675
00:40:04,960 --> 00:40:07,804
Подкачай бёдра!
676
00:40:08,560 --> 00:40:10,164
Давай, давай, давай!
677
00:40:16,560 --> 00:40:19,609
- Пока.
- Курва! Млять!
678
00:40:26,396 --> 00:40:27,725
Что?
679
00:40:31,000 --> 00:40:32,100
Нет.
680
00:40:33,280 --> 00:40:34,361
Срань.
681
00:40:34,880 --> 00:40:37,929
Простите. Зачем столько перьев?
682
00:40:43,160 --> 00:40:44,241
Чёрт.
Скачать

Скачать торрент!

Как скачивать? · Что такое торрент? · Рейтинг и ограничения

Сайт не распространяет и не хранит электронные версии произведений, а лишь предоставляет доступ к создаваемому пользователями каталогу ссылок на торрент-файлы, которые содержат только списки хеш-сумм

[Профиль] [ЛС]
Показать сообщения:    
Ответить на тему

Текущее время: Сегодня 00:12

Часовой пояс: GMT + 4



Вы не можете начинать темы
Вы не можете отвечать на сообщения
Вы не можете редактировать свои сообщения
Вы не можете удалять свои сообщения
Вы не можете голосовать в опросах
Вы не можете прикреплять файлы к сообщениям
Вы не можете скачивать файлы