Спасибо, папа / Thank you, dad (Грач Кешишян / Hrach Keshishyan) [2014, Армения, комедия, WEB-DL 1080p] + Original Rus

Ответить на тему
 
Автор Сообщение

user ®

Стаж: 7 лет 7 месяцев

Сообщений: 20008

Пост Пост: #1 от 09-Ноя-2015 00:30

[Цитировать]

Спасибо, папа / Thank you, dad
Страна: Армения
Студия: Марс Медиа Энтертейнмент
Жанр: комедия
Год выпуска: 2014
Продолжительность: 01:35:21
Перевод: Не требуется
Cубтитры: нет
Оригинальная аудиодорожка: русский
Режиссер: Грач Кешишян / Hrach Keshishyan
В ролях: Криста Донарго, Луиза Гамбарян, Майрануш Григорян, Дэвид Акопян, Левон Арутюнян, Джордж Ховакимян, Джения Мкртумян, Левон Мурадян, Еро Мурян, Нарек Нерсисян
Описание: В свой день рождения Вирджи, живущая в Нью-Йорке, получает неожиданный подарок — наследство в 50 миллионов долларов. Только по завещанию отца, которого она не видела больше 10 лет, ей надо выполнить одно условие: найти армянина с редчайшим именем Баргевос и выйти за него замуж. На все это ей дается только месяц. Чтобы встретить свое «счастье», Вирджи через несколько дней вылетает в Армению, где, как ей удалось выяснить, живет один-единственный Баргевос.

Sample
Тип релиза: WEB-DL 1080p
Контейнер: MKV
Видео: MPEG4 AVC Video, H264, 1918x956, 25 fps, 4982 kbps
Аудио: Russian (AC3, 2 ch, 192 kbps, 16 bits, 48.0 KHz)

MediaInfo
General
Unique ID : 237688696164216079667655461052617178120 (0xB2D12D80453EBC7BB56E21921245BC08)
Complete name : E:\Thank you, dad 2014 WEB-DL 1080p.mkv
Format : Matroska
Format version : Version 4 / Version 2
File size : 3.52 GiB
Duration : 1h 35mn
Overall bit rate : 5 279 Kbps
Encoded date : UTC 2015-10-27 16:35:06
Writing application : mkvmerge v6.1.0 ('Old Devil') built on Mar 2 2013 14:32:37
Writing library : libebml v1.3.0 + libmatroska v1.4.0
Video
ID : 1
Format : AVC
Format/Info : Advanced Video Codec
Format profile : High@L4.0
Format settings, CABAC : Yes
Format settings, ReFrames : 4 frames
Codec ID : V_MPEG4/ISO/AVC
Duration : 1h 35mn
Bit rate : 4 982 Kbps
Width : 1 918 pixels
Height : 956 pixels
Display aspect ratio : 2.006
Frame rate mode : Constant
Frame rate : 25.000 fps
Color space : YUV
Chroma subsampling : 4:2:0
Bit depth : 8 bits
Scan type : Progressive
Bits/(Pixel*Frame) : 0.109
Stream size : 3.32 GiB (94%)
Language : English
Default : Yes
Forced : No
Color primaries : BT.709
Transfer characteristics : BT.709
Matrix coefficients : BT.709
Audio
ID : 2
Format : AC-3
Format/Info : Audio Coding 3
Mode extension : CM (complete main)
Format settings, Endianness : Big
Codec ID : A_AC3
Duration : 1h 35mn
Bit rate mode : Constant
Bit rate : 192 Kbps
Channel count : 2 channels
Channel positions : Front: L R
Sampling rate : 48.0 KHz
Bit depth : 16 bits
Compression mode : Lossy
Stream size : 131 MiB (4%)
Language : Russian
Default : Yes
Forced : No
Menu
00:00:00.000 : en:Глава 1
00:06:55.000 : en:Глава 2
00:11:25.000 : en:Глава 3
00:15:37.000 : en:Глава 4
00:20:20.000 : en:Глава 5
00:24:46.000 : en:Глава 6
00:30:22.000 : en:Глава 7
00:35:48.000 : en:Глава 8
00:41:29.000 : en:Глава 9
00:46:05.000 : en:Глава 10
00:50:45.000 : en:Глава 11
00:55:20.000 : en:Глава 12
01:00:12.000 : en:Глава 13
01:06:03.000 : en:Глава 14
01:11:14.000 : en:Глава 15
01:16:17.000 : en:Глава 16
01:21:55.000 : en:Глава 17
01:27:22.000 : en:Глава 18
01:31:56.000 : en:Глава 19
Скриншоты
Скачать

Скачать торрент!

Как скачивать? · Что такое торрент? · Рейтинг и ограничения

Сайт не распространяет и не хранит электронные версии произведений, а лишь предоставляет доступ к создаваемому пользователями каталогу ссылок на торрент-файлы, которые содержат только списки хеш-сумм

[Профиль] [ЛС]
Показать сообщения:    
Ответить на тему

Текущее время: Сегодня 15:57

Часовой пояс: GMT + 4



Вы не можете начинать темы
Вы не можете отвечать на сообщения
Вы не можете редактировать свои сообщения
Вы не можете удалять свои сообщения
Вы не можете голосовать в опросах
Вы не можете прикреплять файлы к сообщениям
Вы не можете скачивать файлы