Сибирское воспитание / Educazione siberiana (Габриэле Сальваторес / Gabriele Salvatores) [2013, Италия, драма, криминал, BDRip 1080p] DVO + VO + Sub Ita + Original Eng

Ответить на тему
 
Автор Сообщение

user ®

Стаж: 7 лет 7 месяцев

Сообщений: 20008

Пост Пост: #1 от 09-Ноя-2015 00:30

[Цитировать]

Сибирское воспитание / Educazione siberiana-Страна: Италия
Жанр: драма, криминал
Студия: Cattleya / Ministero per i Beni e le Attività Culturali
Год выпуска: 2013
Продолжительность: 01:43:33
Перевод 1: Профессиональный (двухголосый закадровый)
Перевод 2: Одноголосый закадровый
Cубтитры: итальянские
Оригинальная аудиодорожка: английская
Режиссёр: Габриэле Сальваторес / Gabriele Salvatores
В ролях: Арнас Федаравичус, Вилиус Тумалавичус, Элинор Томлинсон, Йонас Труканас, Виталий Поршнев, Петер Стормаре, Джон Малкович.
Описание: Действие фильма происходит в городе Бендеры в Приднестровье. Юный главный герой по имени Колыма оказывается впутан в жестокий криминальный мир своего родного городка. Мы увидим становление этого мальчика, которому приходится принять правила их общины и пуститься во все тяжкие. Жить «по понятиям» его научит матерый авторитет — дед Кузя.- -Тип релиза: BDRip 1080p
Контейнер: MKV
Видео: 1920x1036 (16:9), 23.976 fps, x264 ~11 Mbps
Дорожка №1 (RUS): MP3, 48000 Hz, stereo, 128 kb/s
Дорожка №2 (RUS): AC3, 48000 Hz, 5.1, 384 kb/s
Дорожка №3 (ENG): DTS, 48000 Hz, 5.1, 1536 kb/s
Формат субтитров: softsub (SRT)
MediaInfo
Format : Matroska
Format version : Version 4 / Version 2
File size : 10.5 GiB
Duration : 1h 43mn
Overall bit rate mode : Variable
Overall bit rate : 14.5 Mbps
Encoded date : UTC 2015-09-30 19:53:02
Writing application : mkvmerge v6.9.1 ('Blue Panther') 64bit built on Apr 18 2014 18:23:38
Writing library : libebml v1.3.0 + libmatroska v1.4.1
Video
ID : 1
Format : AVC
Format/Info : Advanced Video Codec
Format profile : High@L4.1
Format settings, CABAC : Yes
Format settings, ReFrames : 4 frames
Codec ID : V_MPEG4/ISO/AVC
Duration : 1h 43mn
Bit rate mode : Variable
Bit rate : 11.0 Mbps
Maximum bit rate : 62.5 Mbps
Width : 1 920 pixels
Height : 1 036 pixels
Display aspect ratio : 1.85:1
Frame rate mode : Constant
Frame rate : 23.976 fps
Color space : YUV
Chroma subsampling : 4:2:0
Bit depth : 8 bits
Scan type : Progressive
Bits/(Pixel*Frame) : 0.231
Stream size : 7.74 GiB (74%)
Writing library : x264 core 133 r2334 a3ac64b
Encoding settings : cabac=1 / ref=4 / deblock=1:0:0 / analyse=0x3:0x113 / me=umh / subme=8 / psy=1 / psy_rd=1.00:0.00 / mixed_ref=1 / me_range=16 / chroma_me=1 / trellis=1 / 8x8dct=1 / cqm=0 / deadzone=21,11 / fast_pskip=1 / chroma_qp_offset=-2 / threads=12 / lookahead_threads=2 / sliced_threads=0 / nr=0 / decimate=1 / interlaced=0 / bluray_compat=0 / constrained_intra=0 / bframes=3 / b_pyramid=0 / b_adapt=2 / b_bias=0 / direct=3 / weightb=1 / open_gop=0 / weightp=2 / keyint=240 / keyint_min=24 / scenecut=40 / intra_refresh=0 / rc_lookahead=50 / rc=2pass / mbtree=1 / bitrate=11000 / ratetol=1.0 / qcomp=0.60 / qpmin=0 / qpmax=69 / qpstep=4 / cplxblur=20.0 / qblur=0.5 / vbv_maxrate=62500 / vbv_bufsize=62500 / nal_hrd=vbr / ip_ratio=1.40 / aq=1:1.00
Language : Italian
Default : Yes
Forced : No
Audio #1
ID : 2
Format : MPEG Audio
Format version : Version 1
Format profile : Layer 3
Codec ID : A_MPEG/L3
Codec ID/Hint : MP3
Duration : 1h 43mn
Bit rate mode : Constant
Bit rate : 128 Kbps
Channel(s) : 2 channels
Sampling rate : 48.0 KHz
Compression mode : Lossy
Stream size : 94.8 MiB (1%)
Title : DVO
Writing library : LAME3.98r
Encoding settings : -m s -V 4 -q 2 -lowpass 17 -b 128
Language : Russian
Default : Yes
Forced : No
Audio #2
ID : 3
Format : AC-3
Format/Info : Audio Coding 3
Mode extension : CM (complete main)
Format settings, Endianness : Big
Codec ID : A_AC3
Duration : 1h 43mn
Bit rate mode : Constant
Bit rate : 384 Kbps
Channel(s) : 6 channels
Channel positions : Front: L C R, Side: L R, LFE
Sampling rate : 48.0 KHz
Bit depth : 16 bits
Compression mode : Lossy
Stream size : 284 MiB (3%)
Title : AVO
Language : Russian
Default : No
Forced : No
Audio #3
ID : 4
Format : DTS
Format/Info : Digital Theater Systems
Mode : 16
Format settings, Endianness : Big
Codec ID : A_DTS
Duration : 1h 43mn
Bit rate mode : Constant
Bit rate : 1 509 Kbps
Channel(s) : 6 channels
Channel positions : Front: L C R, Side: L R, LFE
Sampling rate : 48.0 KHz
Bit depth : 16 bits
Compression mode : Lossy
Delay relative to video : 11ms
Stream size : 1.09 GiB (10%)
Title : English
Language : English
Default : No
Forced : No
Audio #4
ID : 5
Format : DTS
Format/Info : Digital Theater Systems
Mode : 16
Format settings, Endianness : Big
Codec ID : A_DTS
Duration : 1h 43mn
Bit rate mode : Constant
Bit rate : 1 509 Kbps
Channel(s) : 6 channels
Channel positions : Front: L C R, Side: L R, LFE
Sampling rate : 48.0 KHz
Bit depth : 16 bits
Compression mode : Lossy
Delay relative to video : 11ms
Stream size : 1.09 GiB (10%)
Title : Italian
Language : Italian
Default : No
Forced : No
Text
ID : 6
Format : UTF-8
Codec ID : S_TEXT/UTF8
Codec ID/Info : UTF-8 Plain Text
Title : Italian
Language : Italian
Default : No
Forced : No
Menu
00:00:00.000 : en:00:00:00.000
00:04:44.910 : en:00:04:44.910
00:11:15.967 : en:00:11:15.967
00:15:54.370 : en:00:15:54.370
00:18:49.462 : en:00:18:49.462
00:24:15.954 : en:00:24:15.954
00:29:02.741 : en:00:29:02.741
00:34:09.256 : en:00:34:09.256
00:45:51.165 : en:00:45:51.165
00:49:14.076 : en:00:49:14.076
00:56:31.805 : en:00:56:31.805
01:05:53.616 : en:01:05:53.616
01:16:38.719 : en:01:16:38.719
01:21:56.995 : en:01:21:56.995
01:27:24.948 : en:01:27:24.948
01:35:37.023 : en:01:35:37.023
Скриншоты
Скачать

Скачать торрент!

Как скачивать? · Что такое торрент? · Рейтинг и ограничения

Сайт не распространяет и не хранит электронные версии произведений, а лишь предоставляет доступ к создаваемому пользователями каталогу ссылок на торрент-файлы, которые содержат только списки хеш-сумм

[Профиль] [ЛС]
Показать сообщения:    
Ответить на тему

Текущее время: Сегодня 09:53

Часовой пояс: GMT + 4



Вы не можете начинать темы
Вы не можете отвечать на сообщения
Вы не можете редактировать свои сообщения
Вы не можете удалять свои сообщения
Вы не можете голосовать в опросах
Вы не можете прикреплять файлы к сообщениям
Вы не можете скачивать файлы