Мальчик из ада / The Boy from Hell / Jigoku kozô (Мари Асато / Mari Asato) [2004, Япония, ужасы, DVDRip] VO (Виктор Береговых) + Sub Eng

Ответить на тему
 
Автор Сообщение

user ®

Стаж: 13 лет

Сообщений: 15071

Пост Пост: #1 от 08-Ноя-2015 21:24

[Цитировать]

Мальчик из ада / The Boy from Hell / Jigoku kozô
Страна: Япония
Жанр: ужасы
Год выпуска: 2004
Продолжительность: 00:51:04
Перевод: Одноголосый закадровый (Виктор Береговых) - по переводу Куценко
Cубтитры: английские (вшитые)
Режиссер: Мари Асато / Mari Asato
В ролях: Мираи Ямамото, Мицуру Акабоси, Нумата Баку, Ханаэ Сёдзи, Сёта Сомэтани, Кандзи Цуда
Описание: Мистическая старуха возникает перед Сетсу, которая потеряла сейчас своего единственного ребенка в страшной аварии. По её утверждению, она может вернуть обратно к жизни Дайо. После согласия на черную магию, Дайо возвращается к своей маме, но к ужасу Сетсу, он наполовину разложившийся и бесчеловечный.
Сэмпл: https://www.sendspace.com/file/ekfi8j
Качество видео: DVDRip
Формат видео: AVI
Видео: XviD, 720x464 (1.552), 29.970 fps, 1791 kbps avg, 0.179 bit/pixel
Аудио: AC3, 48.0 KHz, 192 Kbps, 2 channels
Формат субтитров: hardsub (неотключаемые)
MediaInfo
Format : AVI
Format/Info : Audio Video Interleave
File size : 729 MiB
Duration : 51mn 4s
Overall bit rate : 1 995 Kbps
Writing application : VirtualDubMod 1.5.10.2 (build 2540/release)
Writing library : VirtualDubMod build 2540/release
Video
ID : 0
Format : MPEG-4 Visual
Format profile : AdvancedSimple@L5
Format settings, BVOP : Yes
Format settings, QPel : No
Format settings, GMC : No warppoints
Format settings, Matrix : Custom
Codec ID : XVID
Codec ID/Hint : XviD
Duration : 51mn 4s
Bit rate : 1 791 Kbps
Width : 720 pixels
Height : 464 pixels
Display aspect ratio : 1.552
Frame rate : 29.970 fps
Resolution : 24 bits
Colorimetry : 4:2:0
Scan type : Progressive
Bits/(Pixel*Frame) : 0.179
Stream size : 654 MiB (90%)
Writing library : XviD 1.2.0.dev47 (UTC 2006-11-01)
Audio
ID : 1
Format : AC-3
Format/Info : Audio Coding 3
Codec ID : 2000
Duration : 51mn 4s
Bit rate mode : Constant
Bit rate : 192 Kbps
Channel(s) : 2 channels
Channel positions : L R
Sampling rate : 48.0 KHz
Stream size : 70.1 MiB (10%)
Alignment : Split accross interleaves
Interleave, duration : 33 ms (1.00 video frame)
Interleave, preload duration : 500 ms
Language : Russian
Скриншот c названием фильма Скриншоты
Скачать

Скачать торрент! Мальчик из ада / The Boy from Hell / Jigoku kozô (Мари Асато / Mari Asato) [2004, Япония, ужасы, DVDRip] VO (Виктор Береговых) + Sub Eng

Как скачивать? · Что такое торрент? · Рейтинг и ограничения

Сайт не распространяет и не хранит электронные версии произведений, а лишь предоставляет доступ к создаваемому пользователями каталогу ссылок на торрент-файлы, которые содержат только списки хеш-сумм

[Профиль] [ЛС]
Показать сообщения:    
Ответить на тему

Текущее время: Сегодня 12:13

Часовой пояс: GMT + 4



Вы не можете начинать темы
Вы не можете отвечать на сообщения
Вы не можете редактировать свои сообщения
Вы не можете удалять свои сообщения
Вы не можете голосовать в опросах
Вы не можете прикреплять файлы к сообщениям
Вы не можете скачивать файлы