Нортфорк / Northfork (Майкл Полиш / Michael Polish) [2003, США, драма, фэнтези, WEB-DL 720p] MVO + Sub Eng + Original Eng

Ответить на тему
 
Автор Сообщение

user ®

Стаж: 7 лет 7 месяцев

Сообщений: 20008

Пост Пост: #1 от 08-Ноя-2015 21:24

[Цитировать]

Нортфорк / Northfork
Страна: США
Студия: Paramount Classics, Romano Shane Productions, Departure Entertainment
Жанр: драма, фэнтези
Год выпуска: 2003
Продолжительность: 01:43:17
Перевод: Профессиональный (многоголосый закадровый)
Cубтитры: английские
Оригинальная аудиодорожка: английский
Режиссер: Майкл Полиш / Michael Polish
В ролях: Джеймс Вудс / James Woods, Ник Нолти / Nick Nolte, Даглас Сиберн / Douglas Sebern, Клэр Форлани / Claire Forlani, Дьюэл Фарнс / Duel Farnes, Марк Полиш / Mark Polish, Дэрил Ханна / Daryl Hannah, Грэм Бекел / Graham Beckel, Джош Баркер / Joshuin Barker, Питер Койот / Peter Coyote
Описание: Действие картины происходит в 1955 году в маленьком городке штата Монтана, который должен быть затоплен по окончании строительства новой гидроэлектростанции. У жителей осталось еще два дня, пока вода не накроет их дома, и большинство уже собирается покидать город, за исключением нескольких упрямых людей, в число которых входит священник, заботящийся об умирающей сироте, который думает, что он не кто иной, как один из потерянных ангелов. Также остались человек, который построил ковчег, и молодая женатая пара. Команда правительственных рабочих должна вытащить их из города, но это оказывается очень трудной задачей.
II Сэмпл II IMDB II
Доп. информация:
За многоголоску спасибо spon_4
Тип релиза: WEB-DL 720p
Контейнер: MKV
Видео: AVC / 1280x544 / 2.35:1 / 23.976fps / Bit rate 3843Kbps
Аудио 1: АС3 / 48.0 KHz / 6ch. / 448kbps / rus / mvo
Аудио 2: АС3 / 48.0 KHz / 6ch. / 384kbps / eng
Формат субтитров: softsub (SRT)
MediaInfo
Общее
Уникальный идентификатор : 180305540037114390478443138004131046738 (0x87A595787B0CBCE0AA632976A92CE552)
Полное имя : G:\!!!_torrent\Northfork.2003.WEB-DL.720p_by_vedigo.mkv
Формат : Matroska
Версия формата : Version 4 / Version 2
Размер файла : 3,44 Гбайт
Продолжительность : 1 ч. 43 м.
Общий поток : 4770 Кбит/сек
Название фильма : Northfork.2003.WEB-DL.720p_by_vedigo
Дата кодирования : UTC 2015-10-27 06:19:11
Программа кодирования : mkvmerge v8.5.0 ('Vanishing Act') 64bit
Библиотека кодирования : libebml v1.3.1 + libmatroska v1.4.2
DURATION : 01:40:44.796000000
NUMBER_OF_FRAMES : 1197
NUMBER_OF_BYTES : 29238
_STATISTICS_WRITING_APP : mkvmerge v8.5.0 ('Vanishing Act') 64bit
_STATISTICS_WRITING_DATE_UTC : 2015-10-27 06:19:11
_STATISTICS_TAGS : BPS DURATION NUMBER_OF_FRAMES NUMBER_OF_BYTES
Видео
Идентификатор : 1
Формат : AVC
Формат/Информация : Advanced Video Codec
Профиль формата : Main@L3.1
Параметр CABAC формата : Нет
Параметр ReFrames формата : 2 кадра
Идентификатор кодека : V_MPEG4/ISO/AVC
Продолжительность : 1 ч. 43 м.
Битрейт : 3843 Кбит/сек
Ширина : 1280 пикселей
Высота : 544 пикселя
Соотношение сторон : 2,35:1
Режим частоты кадров : Постоянный
Частота кадров : 23,976 кадра/сек
Цветовое пространство : YUV
Субдискретизация насыщенности : 4:2:0
Битовая глубина : 8 бит
Тип развёртки : Прогрессивная
Бит/(Пиксели*Кадры) : 0.230
Размер потока : 2,77 Гбайт (81%)
Заголовок : Northfork.2003.WEB-DL.720p_by_vedigo
Default : Да
Forced : Нет
Цветовой диапазон : Limited
Основные цвета : BT.709
Характеристики трансфера : BT.709
Коэффициенты матрицы : BT.709
Аудио #1
Идентификатор : 2
Формат : AC-3
Формат/Информация : Audio Coding 3
Расширение режима : CM (complete main)
Параметр Endianness формата : Big
Идентификатор кодека : A_AC3
Продолжительность : 1 ч. 43 м.
Вид битрейта : Постоянный
Битрейт : 448 Кбит/сек
Каналы : 6 каналов
Расположение каналов : Front: L C R, Side: L R, LFE
Частота : 48,0 КГц
Метод сжатия : С потерями
Размер потока : 331 Мбайт (9%)
Заголовок : MVO
Язык : Russian
Default : Да
Forced : Нет
Аудио #2
Идентификатор : 3
Формат : AC-3
Формат/Информация : Audio Coding 3
Расширение режима : CM (complete main)
Параметр Endianness формата : Big
Идентификатор кодека : A_AC3
Продолжительность : 1 ч. 43 м.
Вид битрейта : Постоянный
Битрейт : 384 Кбит/сек
Каналы : 6 каналов
Расположение каналов : Front: L C R, Side: L R, LFE
Частота : 48,0 КГц
Метод сжатия : С потерями
Размер потока : 284 Мбайт (8%)
Заголовок : original
Язык : English
Default : Нет
Forced : Нет
Текст
Идентификатор : 4
Формат : UTF-8
Идентификатор кодека : S_TEXT/UTF8
Идентификатор кодека/Информация : UTF-8 Plain Text
Заголовок : subtitle eng
Язык : English
Default : Нет
Forced : Нет
Меню
00:00:00.000 : en:Left Behind
00:11:08.000 : en:The Dream
00:16:48.000 : en:Guardian Angels
00:23:02.000 : en:1,000 Miles
00:32:28.000 : en:Evictions
00:41:21.000 : en:Winging It
00:47:51.000 : en:Sign From God
00:59:29.000 : en:I'm Happy
01:03:40.000 : en:Get Confirmed
01:10:35.000 : en:A Good Story
01:19:35.000 : en:First Nick Is The Hardest
01:28:36.000 : en:Rest In Peace
Скриншоты
Скачать

Скачать торрент!

Как скачивать? · Что такое торрент? · Рейтинг и ограничения

Сайт не распространяет и не хранит электронные версии произведений, а лишь предоставляет доступ к создаваемому пользователями каталогу ссылок на торрент-файлы, которые содержат только списки хеш-сумм

[Профиль] [ЛС]
Показать сообщения:    
Ответить на тему

Текущее время: Сегодня 10:07

Часовой пояс: GMT + 4



Вы не можете начинать темы
Вы не можете отвечать на сообщения
Вы не можете редактировать свои сообщения
Вы не можете удалять свои сообщения
Вы не можете голосовать в опросах
Вы не можете прикреплять файлы к сообщениям
Вы не можете скачивать файлы