Лес: Божества / The Woods: The Hallow (Корин Харди / Corin Hardy) [2015, Великобритания, ужасы, WEB-DLRip] VO

Ответить на тему
 
Автор Сообщение

user ®

Стаж: 7 лет 7 месяцев

Сообщений: 20008

Пост Пост: #1 от 08-Ноя-2015 18:18

[Цитировать]

Лес: Божества / The Woods: The Hallow Выпущено: Великобритания
Год выпуска: 2015
Жанр: ужасы
Продолжительность: 01:36:52
Перевод: Одноголосый закадровый Хихидок, по переводу Марла Z и Enigma-Режиссер: Корин Харди / Corin Hardy-В ролях: Джозеф Моул, Бояна Новакович, Майкл МакЭлхаттон, Гари Лайдон, Стюарт Грэхэм, Конор Крэйг Стефенс, Шон Тайрел, Билли Трэйнор
--Семья переехавшая в Ирландию, сталкивается с демоническими созданиями, живущими в лесу.-
-
Сэмпл: http://sendfile.su/1171833
Качество видео: WEB-DLRip
Исходник: WEB-DLRip 720p
Формат видео: AVI
Видео: XviD (1.2.2) 920kbps 704x288 24.000fps
Аудио: MP3 128kbps 2ch 16bit 44100khz


MediaInfo
MediaInfoLib - v0.7.62
General
Complete name : E:\Контарик\Downloads\Мои раздачи\Лес. Божества (The Woods. The Hallow). 2015г. WEB-DLRip. - kontarik81.avi
Format : AVI
Format/Info : Audio Video Interleave
File size : 733 MiB
Duration : 1h 36mn
Overall bit rate : 1 058 Kbps
Writing application : VirtualDubMod 1.5.10.3 | www.virtualdub-fr.org || (build 2550/release)
Writing library : VirtualDubMod build 2550/release
Video
ID : 0
Format : MPEG-4 Visual
Format profile : Advanced Simple@L5
Format settings, BVOP : 1
Format settings, QPel : No
Format settings, GMC : No warppoints
Format settings, Matrix : Default (H.263)
Codec ID : XVID
Codec ID/Hint : XviD
Duration : 1h 36mn
Bit rate : 920 Kbps
Width : 704 pixels
Height : 288 pixels
Display aspect ratio : 2.40:1
Frame rate : 24.000 fps
Color space : YUV
Chroma subsampling : 4:2:0
Bit depth : 8 bits
Scan type : Progressive
Compression mode : Lossy
Bits/(Pixel*Frame) : 0.189
Stream size : 638 MiB (87%)
Writing library : XviD 1.2.1 (UTC 2008-12-04)
Audio
ID : 1
Format : MPEG Audio
Format version : Version 1
Format profile : Layer 3
Mode : Joint stereo
Mode extension : MS Stereo
Codec ID : 55
Codec ID/Hint : MP3
Duration : 1h 36mn
Bit rate mode : Constant
Bit rate : 128 Kbps
Channel(s) : 2 channels
Sampling rate : 44.1 KHz
Compression mode : Lossy
Stream size : 88.7 MiB (12%)
Alignment : Split accross interleaves
Interleave, duration : 42 ms (1.00 video frame)
Interleave, preload duration : 500 ms
Writing library : LAME3.99r
Encoding settings : -m j -V 4 -q 2 -lowpass 17 -b 128
Скриншот c названием фильма Скриншоты
Скачать

Скачать торрент!

Как скачивать? · Что такое торрент? · Рейтинг и ограничения

Сайт не распространяет и не хранит электронные версии произведений, а лишь предоставляет доступ к создаваемому пользователями каталогу ссылок на торрент-файлы, которые содержат только списки хеш-сумм

[Профиль] [ЛС]
Показать сообщения:    
Ответить на тему

Текущее время: Сегодня 21:39

Часовой пояс: GMT + 4



Вы не можете начинать темы
Вы не можете отвечать на сообщения
Вы не можете редактировать свои сообщения
Вы не можете удалять свои сообщения
Вы не можете голосовать в опросах
Вы не можете прикреплять файлы к сообщениям
Вы не можете скачивать файлы