Кадриль (Виктор Титов) [1999, комедия, HDTV 1080i]

Ответить на тему
 
Автор Сообщение

user ®

Стаж: 7 лет 7 месяцев

Сообщений: 20008

Пост Пост: #1 от 08-Ноя-2015 15:12

[Цитировать]

Кадриль
Жанр: комедия
Год выпуска: 1999
Продолжительность: 01:19:55
Режиссёр: Виктор Титов
В ролях: Станислав Любшин, Любовь Полищук, Олег Табаков, Валентина Теличкина, Нина Усатова
Описание: В далекой прибайкальской деревушке живут две семьи — Коля Звягинцев с женой Лидой и его сосед Саня Арефьев с женой Валей. Хоть и перевалило им за 60, но ведут они себя, как мальчишки — всё у них розыгрыши да подначки. Также, не желая того, во всей этой истории приняла участие их общая соседка, одинокая женщина Макеевна, потихоньку таскающая кирпичи со двора Звягинцевых. И закрутился веселый танец кадриль, как и положено с переменой партнеров...
Качество: HDTV 1080i
Контейнер: TS
Видео кодек: H.264
Аудио кодек: MP2
Видео : H264; 1920x1080 (16:9); 25.000 fps; ~7 564 Kbps
Аудио : MPEG Audio Version 1 Layer 2, 48000Hz, 2 channels stereo 192 Кбит/сек
MediaInfo
General
ID : 1 (0x1)
Complete name : O:\1__канал__HD\Кадриль_HDTV 1080i_kuzmichm2196.ts
Format : MPEG-TS
File size : 4.56 GiB
Duration : 1h 19mn
Overall bit rate mode : Variable
Overall bit rate : 8 161 Kbps
Video
ID : 2142 (0x85E)
Menu ID : 2141 (0x85D)
Format : AVC
Format/Info : Advanced Video Codec
Format profile : Main@L4
Format settings, CABAC : Yes
Format settings, ReFrames : 3 frames
Codec ID : 27
Duration : 1h 19mn
Bit rate : 7 564 Kbps
Width : 1 920 pixels
Height : 1 080 pixels
Display aspect ratio : 16:9
Frame rate : 25.000 fps
Standard : Component
Color space : YUV
Chroma subsampling : 4:2:0
Bit depth : 8 bits
Scan type : Interlaced
Scan order : Top Field First
Bits/(Pixel*Frame) : 0.146
Stream size : 4.22 GiB (93%)
Color range : Limited
Color primaries : BT.709
Transfer characteristics : BT.709
Matrix coefficients : BT.709
Audio
ID : 2145 (0x861)
Menu ID : 2141 (0x85D)
Format : MPEG Audio
Format version : Version 1
Format profile : Layer 2
Codec ID : 3
Duration : 1h 19mn
Bit rate mode : Constant
Bit rate : 192 Kbps
Channel(s) : 2 channels
Sampling rate : 48.0 KHz
Compression mode : Lossy
Stream size : 110 MiB (2%)
Language : Russian
Скриншоты
Скачать

Скачать торрент!

Как скачивать? · Что такое торрент? · Рейтинг и ограничения

Сайт не распространяет и не хранит электронные версии произведений, а лишь предоставляет доступ к создаваемому пользователями каталогу ссылок на торрент-файлы, которые содержат только списки хеш-сумм

[Профиль] [ЛС]
Показать сообщения:    
Ответить на тему

Текущее время: Сегодня 12:55

Часовой пояс: GMT + 4



Вы не можете начинать темы
Вы не можете отвечать на сообщения
Вы не можете редактировать свои сообщения
Вы не можете удалять свои сообщения
Вы не можете голосовать в опросах
Вы не можете прикреплять файлы к сообщениям
Вы не можете скачивать файлы