Удушение / Удушье / Suffocation / Zhixi (Бинцзянь Чжан / Bingjian Zhang) [2005, Китай, триллер, DVDRip] VO (Виктор Береговых)

Ответить на тему
 
Автор Сообщение

user ®

Стаж: 13 лет

Сообщений: 15071

Пост Пост: #1 от 08-Ноя-2015 05:54

[Цитировать]

Удушение / Удушье / Suffocation / Zhixi
Страна: Китай
Жанр: триллер
Год выпуска: 2005
Продолжительность: 01:25:20
Перевод: Одноголосый закадровый (Виктор Береговых) - по переводу Куценко
Cубтитры: нет
Режиссер: Бинцзянь Чжан / Bingjian Zhang
В ролях: Гэ Ю, Ли Бин, Хайлу Цинь и др.
Описание: Среди ночи в квартире Ирана раздаётся телефонный звонок. Звонит его взволнованный друг Шен Сяо, который говорит, что его супруга Мейзи пропала. Иран приезжает поддержать обеспокоенного товарища, в итоге оба напиваются, и Иран отключается.
Утром Шен Сяо говорит, что пока Иран спал, он одолжил его машину и катался по городу в тщетных поисках супруги. Всё бы ничего, но днём жена Ирана находит в багажнике машины туфли, принадлежавшие пропавшей. Так что же на самом деле произошло с Мейзи, и куда той ночью ездил Шен Сяо?
Сэмпл: https://www.sendspace.com/file/qjea1h
Качество видео: DVDRip
Формат видео: AVI
Видео: XviD, 640x352 (16:9), 25.000 fps, 1008 kbps avg, 0.179 bit/pixel
Аудио: AC3, 48.0 KHz, 192 Kbps, 2 channels
MediaInfo
Format : AVI
Format/Info : Audio Video Interleave
File size : 738 MiB
Duration : 1h 25mn
Overall bit rate : 1 209 Kbps
Writing application : VirtualDubMod 1.5.10.2 (build 2540/release)
Writing library : VirtualDubMod build 2540/release
Video
ID : 0
Format : MPEG-4 Visual
Format profile : AdvancedSimple@L5
Format settings, BVOP : No
Format settings, QPel : No
Format settings, GMC : No warppoints
Format settings, Matrix : Default (H.263)
Codec ID : XVID
Codec ID/Hint : XviD
Duration : 1h 25mn
Bit rate : 1 008 Kbps
Width : 640 pixels
Height : 352 pixels
Display aspect ratio : 16:9
Frame rate : 25.000 fps
Resolution : 24 bits
Colorimetry : 4:2:0
Scan type : Progressive
Bits/(Pixel*Frame) : 0.179
Stream size : 615 MiB (83%)
Writing library : XviD 1.0.1 (UTC 2004-06-05)
Audio
ID : 1
Format : AC-3
Format/Info : Audio Coding 3
Codec ID : 2000
Duration : 1h 25mn
Bit rate mode : Constant
Bit rate : 192 Kbps
Channel(s) : 2 channels
Channel positions : L R
Sampling rate : 48.0 KHz
Stream size : 117 MiB (16%)
Alignment : Split accross interleaves
Interleave, duration : 40 ms (1.00 video frame)
Interleave, preload duration : 500 ms
Скриншот c названием фильма Скриншоты
Скачать

Скачать торрент! Удушение / Удушье / Suffocation / Zhixi (Бинцзянь Чжан / Bingjian Zhang) [2005, Китай, триллер, DVDRip] VO (Виктор Береговых)

Как скачивать? · Что такое торрент? · Рейтинг и ограничения

Сайт не распространяет и не хранит электронные версии произведений, а лишь предоставляет доступ к создаваемому пользователями каталогу ссылок на торрент-файлы, которые содержат только списки хеш-сумм

[Профиль] [ЛС]
Показать сообщения:    
Ответить на тему

Текущее время: Сегодня 16:05

Часовой пояс: GMT + 4



Вы не можете начинать темы
Вы не можете отвечать на сообщения
Вы не можете редактировать свои сообщения
Вы не можете удалять свои сообщения
Вы не можете голосовать в опросах
Вы не можете прикреплять файлы к сообщениям
Вы не можете скачивать файлы