Наваждение (Игорь Талпа) [1994, мелодрама, VHSRip]

Ответить на тему
 
Автор Сообщение

user ®

Стаж: 7 лет 7 месяцев

Сообщений: 20008

Пост Пост: #1 от 07-Ноя-2015 17:30

[Цитировать]

Наваждение
Жанр: мелодрама
Год выпуска: 1994
Продолжительность: 01:28:00
Режиссёр: Игорь Талпа
В ролях: Марьяна Полтева, Ирина Безрукова, Тимофей Федоров, Лев Дуров, Владислав Демченко, Вадим Долгачев, Владимир Мащенко, Нелли Неведина
Описание: По мотивам рассказа Ивана Бунина «Натали». Сюжет рассказа перенесен в современность. В поисках любовных приключений студент-первокурсник отправляется на дачу к знакомым, где влюбляется одновременно в двух подруг.
Доп. информация: Оцифровка VHS (личный архив) и получение VHSRip alenavova
Эксклюзив для ***. При размещении данного релиза на других сайтах ссылка на автора alenavova обязательна.

Релиз
Сэмпл: https://yadi.sk/i/sbLzHzv-kHWd2
Качество видео: VHSRip
Формат видео: AVI
Видео: 704x528 (1.33:1), 25 fps, XviD build 50 ~2022 kbps avg, 0.22 bit/pixel
Аудио: 48 kHz, AC3 Dolby Digital, 2/0 (L,R) ch, ~192 kbps
MediaInfo
Наваждение [by alenavova].avi
Format : AVI
Format/Info : Audio Video Interleave
File size : 1.37 GiB
Duration : 1h 28mn
Overall bit rate : 2 224 Kbps
Movie name : Наваждение [by alenavova]
Director : by alenavova
Writing application : VirtualDubMod 1.5.10.3 | www.virtualdub-fr.org || (build 2550/release)
Copyright : Edich2
Comment : ***
Video
ID : 0
Format : MPEG-4 Visual
Format profile : Advanced Simple@L5
Format settings, BVOP : 1
Format settings, QPel : No
Format settings, GMC : No warppoints
Format settings, Matrix : Custom
Codec ID : XVID
Codec ID/Hint : XviD
Duration : 1h 28mn
Bit rate : 2 023 Kbps
Width : 704 pixels
Height : 528 pixels
Display aspect ratio : 4:3
Frame rate : 25.000 fps
Color space : YUV
Chroma subsampling : 4:2:0
Bit depth : 8 bits
Scan type : Progressive
Compression mode : Lossy
Bits/(Pixel*Frame) : 0.218
Stream size : 1.24 GiB (91%)
Writing library : XviD 1.2.1 (UTC 2008-12-04)
Audio
ID : 1
Format : AC-3
Format/Info : Audio Coding 3
Mode extension : CM (complete main)
Format settings, Endianness : Big
Codec ID : 2000
Duration : 1h 28mn
Bit rate mode : Constant
Bit rate : 192 Kbps
Channel(s) : 2 channels
Channel positions : Front: L R
Sampling rate : 48.0 KHz
Bit depth : 16 bits
Compression mode : Lossy
Stream size : 121 MiB (9%)
Alignment : Split accross interleaves
Interleave, duration : 40 ms (1.00 video frame)
Interleave, preload duration : 500 ms
Скриншоты
Скачать

Скачать торрент!

Как скачивать? · Что такое торрент? · Рейтинг и ограничения

Сайт не распространяет и не хранит электронные версии произведений, а лишь предоставляет доступ к создаваемому пользователями каталогу ссылок на торрент-файлы, которые содержат только списки хеш-сумм

[Профиль] [ЛС]
Показать сообщения:    
Ответить на тему

Текущее время: Сегодня 17:47

Часовой пояс: GMT + 4



Вы не можете начинать темы
Вы не можете отвечать на сообщения
Вы не можете редактировать свои сообщения
Вы не можете удалять свои сообщения
Вы не можете голосовать в опросах
Вы не можете прикреплять файлы к сообщениям
Вы не можете скачивать файлы