Монстервилль / R.L. Stine\'s Monsterville: The Cabinet of Souls (Питер ДеЛуис / Peter DeLuise) [2015, США, комедия, BDRip-AVC] Dub + Original (Eng) + Sub (Rus, Eng)

Ответить на тему
 
Автор Сообщение

user ®

Стаж: 7 лет 7 месяцев

Сообщений: 20008

Пост Пост: #1 от 07-Ноя-2015 17:30

[Цитировать]

Монстервилль
R.L. Stine's Monsterville: The Cabinet of Souls


Страна: США
Жанр: комедия
Год выпуска: 2015
Продолжительность: 01:25:52
Перевод: Профессиональный (полное дублирование) [Лицензия BD CEE]
Субтитры: русские (forced, full), английские
Оригинальная аудиодорожка: Английский
Режиссер: Питер ДеЛуис / Peter DeLuise
В ролях: Кэтрин МакНамара, Дав Камерон, Райан МакКэртан, Лэйн МакНил, Бриана Бакмастер, Тиффани Эспенсен, Фиона Врум, Карин Коновал, Браден Лемастерс, Шон Квон, Кэйси Дюбуа, Коннор Стэнхоуп
Описание:
Друзья-подростки должны противостоять заклинаниям злого волшебника шоумена, который устроил целый спектакль в доме ужасов в их маленьком городке.

Релиз:
Автор рипа: Stalker oK
Сэмпл
Качество видео: BDRip-AVC [Blu-ray 1080p HDCLUB]
Формат видео: MKV
Видео кодек: AVC
Аудио кодек: AC3
Видео: 2740 Кбит/сек, 1088*612 (16:9), в 23,976 кадр/сек, AVC
Аудио #1: Russian, 448 Кбит/сек, 48,0 КГц, 16 бит, 6 канала(ов), AC-3
Аудио #2: English, 448 Кбит/сек, 48,0 КГц, 16 бит, 6 канала(ов), AC-3
Навигация по главам: есть

MediaInfo
Общее
Уникальный идентификатор : 191602539303248033757072441183660908416 (0x90254E898EF844DAA5E80192688B9F80)
Полное имя : M:\Rips\Monsterville\R.L.Stines.Monsterville.The.Cabinet.of.Souls.2015.BDRip-AVC.Dub.2.18Gb...stalkerok.new-team.mkv
Формат : Matroska
Размер файла : 2,18 Гбайт
Продолжительность : 1 ч. 25 м.
Общий поток : 3633 Кбит/сек
Название фильма : R.L. Stine's Monsterville: The Cabinet of Souls (2015) (New-Team) (Rip by Stalker oK)
Дата кодирования : UTC 2015-11-06 16:33:58
Программа кодирования : mkvmerge v7.9.0 ('Birds') 64bit
Библиотека кодирования : libebml v1.3.1 + libmatroska v1.4.2
Видео
Идентификатор : 1
Формат : AVC
Формат/Информация : Advanced Video Codec
Профиль формата : High@L4.1
Параметр CABAC формата : Да
Параметр ReFrames формата : 12 кадры
Идентификатор кодека : V_MPEG4/ISO/AVC
Продолжительность : 1 ч. 25 м.
Битрейт : 2740 Кбит/сек
Ширина : 1088 пикс.
Высота : 612 пикс.
Соотношение сторон : 16:9
Частота кадров : 23,976 кадр/сек
Цветовое пространство : YUV
Подвыборка цветности : 4:2:0
Битовая глубина : 8 бит
Тип развёртки : Прогрессивная
Бит/(Пиксели*Кадры) : 0.172
Размер потока : 1,60 Гбайт (73%)
Заголовок : R.L. Stine's Monsterville: The Cabinet of Souls (2015) (New-Team) (Rip by Stalker oK)
Библиотека кодирования : x264 core 146 r2538kMod 121396c
Настройки программы : cabac=1 / ref=12 / deblock=1:-3:-3 / analyse=0x3:0x133 / me=umh / subme=11 / psy=1 / fade_compensate=0.00 / psy_rd=1.00:0.12 / mixed_ref=1 / me_range=48 / chroma_me=1 / trellis=2 / 8x8dct=1 / cqm=0 / deadzone=21,11 / fast_pskip=0 / chroma_qp_offset=-3 / threads=12 / lookahead_threads=3 / sliced_threads=0 / nr=0 / decimate=0 / interlaced=0 / bluray_compat=0 / constrained_intra=0 / fgo=0 / bframes=12 / b_pyramid=2 / b_adapt=2 / b_bias=0 / direct=3 / weightb=1 / open_gop=0 / weightp=2 / keyint=240 / keyint_min=23 / scenecut=40 / intra_refresh=0 / rc_lookahead=60 / rc=2pass / mbtree=0 / bitrate=2740 / ratetol=1.0 / qcomp=0.70 / qpmin=0 / qpmax=69 / qpstep=4 / cplxblur=20.0 / qblur=0.5 / vbv_maxrate=50000 / vbv_bufsize=62500 / nal_hrd=none / filler=0 / ip_ratio=1.40 / pb_ratio=1.30 / aq=3:0.80
Аудио #1
Идентификатор : 2
Формат : AC-3
Формат/Информация : Audio Coding 3
Расширение режима : CM (complete main)
Идентификатор кодека : A_AC3
Продолжительность : 1 ч. 25 м.
Вид битрейта : Постоянный
Битрейт : 448 Кбит/сек
Канал(ы) : 6 канала(ов)
Расположение каналов : Front: L C R, Side: L R, LFE
Частота : 48,0 КГц
Битовая глубина : 16 бит
Метод сжатия : С потерями
Размер потока : 275 Мбайт (12%)
Язык : Russian
Аудио #2
Идентификатор : 3
Формат : AC-3
Формат/Информация : Audio Coding 3
Расширение режима : CM (complete main)
Идентификатор кодека : A_AC3
Продолжительность : 1 ч. 25 м.
Вид битрейта : Постоянный
Битрейт : 448 Кбит/сек
Канал(ы) : 6 канала(ов)
Расположение каналов : Front: L C R, Side: L R, LFE
Частота : 48,0 КГц
Битовая глубина : 16 бит
Метод сжатия : С потерями
Размер потока : 275 Мбайт (12%)
Язык : English
Текст #1
Идентификатор : 4
Формат : UTF-8
Идентификатор кодека : S_TEXT/UTF8
Идентификатор кодека/Информация : UTF-8 Plain Text
Заголовок : forced
Язык : Russian
Текст #2
Идентификатор : 5
Формат : UTF-8
Идентификатор кодека : S_TEXT/UTF8
Идентификатор кодека/Информация : UTF-8 Plain Text
Язык : Russian
Текст #3
Идентификатор : 6
Формат : UTF-8
Идентификатор кодека : S_TEXT/UTF8
Идентификатор кодека/Информация : UTF-8 Plain Text
Язык : English
Меню
00:00:00.000 : en:Chapter 1
00:01:52.112 : en:Chapter 2
00:06:07.450 : en:Chapter 3
00:12:19.739 : en:Chapter 4
00:16:38.497 : en:Chapter 5
00:21:20.612 : en:Chapter 6
00:27:48.917 : en:Chapter 7
00:30:48.304 : en:Chapter 8
00:34:03.541 : en:Chapter 9
00:38:59.712 : en:Chapter 10
00:45:17.005 : en:Chapter 11
00:50:32.487 : en:Chapter 12
00:53:50.894 : en:Chapter 13
00:58:00.393 : en:Chapter 14
01:01:09.707 : en:Chapter 15
01:06:32.363 : en:Chapter 16
01:10:13.459 : en:Chapter 17
01:14:05.816 : en:Chapter 18
01:18:10.435 : en:Chapter 19
01:23:50.817 : en:Chapter 20
Скриншоты
Скачать

Скачать торрент!

Как скачивать? · Что такое торрент? · Рейтинг и ограничения

Сайт не распространяет и не хранит электронные версии произведений, а лишь предоставляет доступ к создаваемому пользователями каталогу ссылок на торрент-файлы, которые содержат только списки хеш-сумм

[Профиль] [ЛС]
Показать сообщения:    
Ответить на тему

Текущее время: Сегодня 07:01

Часовой пояс: GMT + 4



Вы не можете начинать темы
Вы не можете отвечать на сообщения
Вы не можете редактировать свои сообщения
Вы не можете удалять свои сообщения
Вы не можете голосовать в опросах
Вы не можете прикреплять файлы к сообщениям
Вы не можете скачивать файлы