Убийство кота / Murder of a Cat (Джиллиан Грин / Gillian Greene) [2014, США, триллер, комедия, WEB-DL 720p] DVO + Sub Eng + Original Eng

Ответить на тему
 
Автор Сообщение

user ®

Стаж: 7 лет 7 месяцев

Сообщений: 20008

Пост Пост: #1 от 07-Ноя-2015 02:03

[Цитировать]

Убийство кота / Murder of a Cat
Страна: США
Студия: Seine Pictures
Жанр: триллер, комедия
Год выпуска: 2014
Продолжительность: 01:41:08
Перевод: Профессиональный (двухголосый закадровый)
Cубтитры: английские
Оригинальная аудиодорожка: английский
Режиссер: Джиллиан Грин / Gillian Greene
В ролях: Фрэн Кранц, Никки Рид, Дж.К. Симмонс, Блайт Даннер, Грег Киннер, Леонардо Нам, Тед Рэйми, Карла Хименес, Дилип Рао, Дебра Кристофферсон
Описание: Настало время всему свету познакомиться с повествованием о коте, у которого, как у иных супергероев, была двойная жизнь. Кот главного героя, молодого хозяина вечно пропадал, но однажды, исчез из дома на совсем. Естественно, молодой человек полагал, что он всего лишь навсего ходит на прогулки, как полагается. Истина представилась куда менее приятной: с его любимцем некто жестоко расправился и убил. Хозяину приходится самостоятельно в подробностях выяснять, что случилось и по каким причинам. В процессе "расследования" он обнаруживает, что жизнь его кота была весьма необычна и любопытна. Неожиданно для себя, главный герой узнал, что у его питомца была ещё хозяйка. Она глубоко переживает и плохо справляется с гибелью кота. Эта хозяйка - девушка Грета. Её замешательству тоже не было предела, как и замешательству хозяина, когда она узнала, что тоже не "единственный друг" любимца. Однако остаётся нерешенной главная проблема: кто мог совершить такое зверство и убить невинное беззащитное животное? Довольно острый сюжет с элементами триллера подогревается тем, что по замыслу режиссёра, Джиллиан Грин, фильм - черная комедия. Необычный сценарий, своеобразную динамку фильма дополнит прелестная игра Френка Канца.

Sample
Тип релиза: WEB-DL 720p
Контейнер: MKV
Видео: MPEG4 AVC Video, H264, 1280x718, 23.976 fps, 3858 kbps
Аудио: Russian (AC3, 6 ch, 384 kbps, 16 bits, 48.0 KHz) - DVO
Аудио 2: English (AC3, 6 ch, 384 kbps, 16 bits, 48.0 KHz) - оригинал
Формат субтитров: softsub (SRT)

MediaInfo
General
Unique ID : 224701528177443024577241340962321781562 (0xA90BF0AEC2FABAB5908EF4A4C354D33A)
Complete name : E:\Murder of a Cat WEB-DL 720p.mkv
Format : Matroska
Format version : Version 4 / Version 2
File size : 3.33 GiB
Duration : 1h 41mn
Overall bit rate : 4 720 Kbps
Encoded date : UTC 2015-10-27 11:09:33
Writing application : mkvmerge v6.1.0 ('Old Devil') built on Mar 2 2013 14:32:37
Writing library : libebml v1.3.0 + libmatroska v1.4.0
Video
ID : 1
Format : AVC
Format/Info : Advanced Video Codec
Format profile : High@L3.1
Format settings, CABAC : No
Format settings, ReFrames : 2 frames
Codec ID : V_MPEG4/ISO/AVC
Duration : 1h 41mn
Bit rate : 3 858 Kbps
Width : 1 280 pixels
Height : 718 pixels
Display aspect ratio : 16:9
Frame rate mode : Constant
Frame rate : 23.976 fps
Color space : YUV
Chroma subsampling : 4:2:0
Bit depth : 8 bits
Scan type : Progressive
Bits/(Pixel*Frame) : 0.175
Stream size : 2.73 GiB (82%)
Language : English
Default : Yes
Forced : No
Color primaries : BT.709
Transfer characteristics : BT.709
Matrix coefficients : BT.709
Audio #1
ID : 2
Format : AC-3
Format/Info : Audio Coding 3
Mode extension : CM (complete main)
Format settings, Endianness : Big
Codec ID : A_AC3
Duration : 1h 41mn
Bit rate mode : Constant
Bit rate : 384 Kbps
Channel count : 6 channels
Channel positions : Front: L C R, Side: L R, LFE
Sampling rate : 48.0 KHz
Bit depth : 16 bits
Compression mode : Lossy
Stream size : 278 MiB (8%)
Language : Russian
Default : Yes
Forced : No
Audio #2
ID : 3
Format : AC-3
Format/Info : Audio Coding 3
Mode extension : CM (complete main)
Format settings, Endianness : Big
Codec ID : A_AC3
Duration : 1h 41mn
Bit rate mode : Constant
Bit rate : 384 Kbps
Channel count : 6 channels
Channel positions : Front: L C R, Side: L R, LFE
Sampling rate : 48.0 KHz
Bit depth : 16 bits
Compression mode : Lossy
Stream size : 278 MiB (8%)
Language : English
Default : No
Forced : No
Text
ID : 4
Format : UTF-8
Codec ID : S_TEXT/UTF8
Codec ID/Info : UTF-8 Plain Text
Language : English
Default : No
Forced : No
Menu
00:00:00.000 : en:Chapter 1
00:10:00.000 : en:Chapter 2
00:20:01.000 : en:Chapter 3
00:30:01.000 : en:Chapter 4
00:40:02.000 : en:Chapter 5
00:50:03.000 : en:Chapter 6
01:00:03.000 : en:Chapter 7
01:10:04.000 : en:Chapter 8
01:20:04.000 : en:Chapter 9
01:30:05.000 : en:Chapter 10
Скриншоты
Скачать

Скачать торрент!

Как скачивать? · Что такое торрент? · Рейтинг и ограничения

Сайт не распространяет и не хранит электронные версии произведений, а лишь предоставляет доступ к создаваемому пользователями каталогу ссылок на торрент-файлы, которые содержат только списки хеш-сумм

[Профиль] [ЛС]
Показать сообщения:    
Ответить на тему

Текущее время: Сегодня 22:32

Часовой пояс: GMT + 4



Вы не можете начинать темы
Вы не можете отвечать на сообщения
Вы не можете редактировать свои сообщения
Вы не можете удалять свои сообщения
Вы не можете голосовать в опросах
Вы не можете прикреплять файлы к сообщениям
Вы не можете скачивать файлы