Истинные ценности / One True Thing (Карл Франклин / Carl Franklin) [1998, США, драма, WEB-DL 720p] MVO + Sub Eng + Original Eng

Ответить на тему
 
Автор Сообщение

user ®

Стаж: 7 лет 7 месяцев

Сообщений: 20008

Пост Пост: #1 от 07-Ноя-2015 02:03

[Цитировать]

Истинные ценности / One True Thing
Страна: США
Студия: Universal Pictures
Жанр: драма
Год выпуска: 1998
Продолжительность: 02:07:18
Перевод: Профессиональный (многоголосый закадровый)
Cубтитры: английские
Оригинальная аудиодорожка: английский
Режиссер: Карл Франклин /Carl Franklin
В ролях: Мэрил Стрип, Рене Зеллвегер, Уильям Хёрт, Том Эверетт Скотт, Лорен Грэм, Никки Кэтт, Джеймс Экхаус, Патрик Брин, Геррит Грэм, Дэвид Байрон
Описание: Когда в семью Гальденов приходит беда, Кэтрин и Джордж просят о помощи единственную дочь Эллен - амбициозную журналистку престижного нью-йоркского журнала. Дочь, пожертвовав карьерой, переезжает к родителям ухаживать за смертельно больной матерью. За это время Эллен предстоит пройти долгий и сложный путь по новому осознанию мира и своего места в нем…

Sample
Тип релиза: WEB-DL 720p
Контейнер: MKV
Видео: MPEG4 AVC Video, H264, 1280x692, 23.976 fps, 3996 kbps
Аудио: Russian (AC3, 2 ch, 448 kbps, 16 bits, 48.0 KHz) - MVO
Аудио 2: English (AC3, 6 ch, 384 kbps, 16 bits, 48.0 KHz) - оригинал
Формат субтитров: softsub (SRT)

MediaInfo
General
Unique ID : 219509698956478839375096245914120115090 (0xA52407BD2D76DDBBAD2F613672125392)
Complete name : K:\One True Thing 1998 WEB-DL 720p.mkv
Format : Matroska
Format version : Version 4 / Version 2
File size : 4.38 GiB
Duration : 2h 7mn
Overall bit rate : 4 926 Kbps
Encoded date : UTC 2015-10-27 11:56:59
Writing application : mkvmerge v6.1.0 ('Old Devil') built on Mar 2 2013 14:32:37
Writing library : libebml v1.3.0 + libmatroska v1.4.0
Video
ID : 1
Format : AVC
Format/Info : Advanced Video Codec
Format profile : High@L3.1
Format settings, CABAC : No
Format settings, ReFrames : 2 frames
Codec ID : V_MPEG4/ISO/AVC
Duration : 2h 7mn
Bit rate : 3 996 Kbps
Width : 1 280 pixels
Height : 692 pixels
Display aspect ratio : 1.85:1
Frame rate mode : Constant
Frame rate : 23.976 fps
Color space : YUV
Chroma subsampling : 4:2:0
Bit depth : 8 bits
Scan type : Progressive
Bits/(Pixel*Frame) : 0.188
Stream size : 3.55 GiB (81%)
Language : English
Default : Yes
Forced : No
Color primaries : BT.709
Transfer characteristics : BT.709
Matrix coefficients : BT.709
Audio #1
ID : 2
Format : AC-3
Format/Info : Audio Coding 3
Mode extension : CM (complete main)
Format settings, Endianness : Big
Codec ID : A_AC3
Duration : 2h 7mn
Bit rate mode : Constant
Bit rate : 448 Kbps
Channel count : 2 channels
Channel positions : Front: L R
Sampling rate : 48.0 KHz
Bit depth : 16 bits
Compression mode : Lossy
Stream size : 408 MiB (9%)
Language : Russian
Default : Yes
Forced : No
Audio #2
ID : 3
Format : AC-3
Format/Info : Audio Coding 3
Mode extension : CM (complete main)
Format settings, Endianness : Big
Codec ID : A_AC3
Duration : 2h 7mn
Bit rate mode : Constant
Bit rate : 384 Kbps
Channel count : 6 channels
Channel positions : Front: L C R, Side: L R, LFE
Sampling rate : 48.0 KHz
Bit depth : 16 bits
Compression mode : Lossy
Stream size : 350 MiB (8%)
Language : English
Default : No
Forced : No
Text
ID : 4
Format : UTF-8
Codec ID : S_TEXT/UTF8
Codec ID/Info : UTF-8 Plain Text
Language : English
Default : No
Forced : No
Menu
00:00:00.000 : en:Main Titles
00:02:11.000 : en:A Normal Life
00:06:41.000 : en:Coming Home
00:10:47.000 : en:Dad's Birthday
00:14:52.000 : en:Writer-To-Writer
00:18:55.000 : en:Do Ya Wanna Dance?
00:21:04.000 : en:Cancer or Career?
00:25:59.000 : en:Moving Home
00:32:02.000 : en:The New Minnie
00:35:57.000 : en:My Mother's Life
00:41:07.000 : en:Dad's Secret
00:42:53.000 : en:The Pain
00:46:30.000 : en:A Surprise
00:50:28.000 : en:More is More
00:55:00.000 : en:Dad's Other Life
00:58:52.000 : en:Dinner Guests
01:04:03.000 : en:Dealing With It
01:08:17.000 : en:What Counts
01:13:15.000 : en:Real Life
01:17:15.000 : en:The Next Part
01:21:05.000 : en:Happy Holidays
01:28:19.000 : en:The "F" Word
01:30:02.000 : en:Kate's Decline
01:31:57.000 : en:The Deep Thoughts
01:37:05.000 : en:Let's Go Home...
01:42:25.000 : en:This Isn't Living
01:49:39.000 : en:That Last Night
01:54:02.000 : en:The Funeral
01:58:16.000 : en:My One True Thing
02:03:00.000 : en:End Titles
Скриншоты
Скачать

Скачать торрент!

Как скачивать? · Что такое торрент? · Рейтинг и ограничения

Сайт не распространяет и не хранит электронные версии произведений, а лишь предоставляет доступ к создаваемому пользователями каталогу ссылок на торрент-файлы, которые содержат только списки хеш-сумм

[Профиль] [ЛС]
Показать сообщения:    
Ответить на тему

Текущее время: Сегодня 14:35

Часовой пояс: GMT + 4



Вы не можете начинать темы
Вы не можете отвечать на сообщения
Вы не можете редактировать свои сообщения
Вы не можете удалять свои сообщения
Вы не можете голосовать в опросах
Вы не можете прикреплять файлы к сообщениям
Вы не можете скачивать файлы