На следующее утро / The Morning After (Сидни Люмет / Sidney Lumet) [1986, США, триллер, мелодрама, криминал, детектив, WEB-DL 720p] DVO + Sub Eng + Original Eng

Ответить на тему
 
Автор Сообщение

user ®

Стаж: 7 лет 7 месяцев

Сообщений: 20008

Пост Пост: #1 от 07-Ноя-2015 02:03

[Цитировать]

На следующее утро / The Morning After
Страна: США
Студия: American Filmworks, Lorimar Productions
Жанр: триллер, мелодрама, криминал, детектив
Год выпуска: 1986
Продолжительность: 01:42:45
Перевод: Профессиональный (двухголосый закадровый)
Cубтитры: английские
Оригинальная аудиодорожка: английский
Режиссер: Сидни Люмет / Sidney Lumet
В ролях: Джейн Фонда, Джефф Бриджес, Рауль Хулиа, Дайан Салинджер, Ричард Форонджи, Джеффри Скотт, Брюс Виленч, Кэтлин Уилхойт, Дон Худ, Фран Беннетт
Описание: У актрисы Алекс Шернберген проблемы с ролями и с алкоголем. Проблемы с алкоголем настолько сильные, что наутро Алекс частенько не помнит подробности вчерашнего вечера. Однажды после вечеринки она просыпается в постели с трупом, и, естественно, не может ничего вспомнить. Неужели она убила человека? А если нет, кто поверит потерявшей работу пьянице? Алекс пытается бежать, потом пытается замести следы…
А потом встречает бывшего полицейского Тернера, который верит ей и обещает помочь. Версия Тернера состоит в том, что Алекс кто-то подставил. Бывшая актриса и бывший полицейский начинают совместное расследование...


Sample
Тип релиза: WEB-DL 720p
Контейнер: MKV
Видео: MPEG4 AVC Video, H264, 1274x720, 23.976 fps, 4085 kbps
Аудио: Russian (AC3, 2 ch, 192 kbps, 16 bits, 48.0 KHz) - DVO
Аудио 2: English (AC3, 1 ch, 192 kbps, 16 bits, 48.0 KHz) - оригинал DVD
Аудио 2: English (AAC, 2 ch, 226 kbps, 16 bits, 48.0 KHz) - оригинал WEB-DL
Формат субтитров: softsub (SRT)

MediaInfo
General
Unique ID : 211983671096336269634189288902775356450 (0x9F7A91EAC522FBB3B5F1E4669DA13C22)
Complete name : E:\The Morning After 1986 WEB-DL 720p.mkv
Format : Matroska
Format version : Version 4 / Version 2
File size : 3.36 GiB
Duration : 1h 42mn
Overall bit rate : 4 681 Kbps
Encoded date : UTC 2015-10-27 16:28:47
Writing application : mkvmerge v6.1.0 ('Old Devil') built on Mar 2 2013 14:32:37
Writing library : libebml v1.3.0 + libmatroska v1.4.0
Video
ID : 1
Format : AVC
Format/Info : Advanced Video Codec
Format profile : High@L3.1
Format settings, CABAC : No
Format settings, ReFrames : 2 frames
Format settings, GOP : N=1
Codec ID : V_MPEG4/ISO/AVC
Duration : 1h 42mn
Width : 1 274 pixels
Height : 720 pixels
Display aspect ratio : 16:9
Frame rate mode : Constant
Frame rate : 23.976 fps
Color space : YUV
Chroma subsampling : 4:2:0
Bit depth : 8 bits
Scan type : Progressive
Language : English
Default : Yes
Forced : No
Color primaries : BT.709
Transfer characteristics : BT.709
Matrix coefficients : BT.709
Audio #1
ID : 2
Format : AC-3
Format/Info : Audio Coding 3
Mode extension : CM (complete main)
Format settings, Endianness : Big
Codec ID : A_AC3
Duration : 1h 42mn
Bit rate mode : Constant
Bit rate : 192 Kbps
Channel count : 2 channels
Channel positions : Front: L R
Sampling rate : 48.0 KHz
Bit depth : 16 bits
Compression mode : Lossy
Stream size : 141 MiB (4%)
Language : Russian
Default : Yes
Forced : No
Audio #2
ID : 3
Format : AC-3
Format/Info : Audio Coding 3
Mode extension : CM (complete main)
Format settings, Endianness : Big
Codec ID : A_AC3
Duration : 1h 42mn
Bit rate mode : Constant
Bit rate : 192 Kbps
Channel count : 1 channel
Channel positions : Front: C
Sampling rate : 48.0 KHz
Bit depth : 16 bits
Compression mode : Lossy
Stream size : 141 MiB (4%)
Title : оригинал DVD
Language : English
Default : No
Forced : No
Audio #3
ID : 4
Format : AAC
Format/Info : Advanced Audio Codec
Format profile : LC
Codec ID : A_AAC
Duration : 1h 42mn
Channel count : 2 channels
Channel positions : Front: L R
Sampling rate : 48.0 KHz
Compression mode : Lossy
Title : оригинал WEB-DL
Language : English
Default : No
Forced : No
Text
ID : 5
Format : UTF-8
Codec ID : S_TEXT/UTF8
Codec ID/Info : UTF-8 Plain Text
Language : English
Default : No
Forced : No
Menu
00:00:00.000 : en:Rude Awakening.
00:05:33.000 : en:Should I Call The Cops?
00:09:30.000 : en:Credits.
00:11:24.000 : en:No Quick Getaway.
00:16:43.000 : en:Ride From Turner.
00:22:26.000 : en:Cleanup.
00:27:04.000 : en:Disappearing Act.
00:31:28.000 : en:Thanksgiving Dinner.
00:35:42.000 : en:Whatever People Are Through With.
00:40:07.000 : en:Fallen Asleep.
00:43:57.000 : en:Out Of The Closet.
00:46:48.000 : en:Whose Side Are You On?
00:51:37.000 : en:Helping An Innocent Drunk.
00:55:18.000 : en:Calling Sgt. Greenbaum.
00:58:43.000 : en:What's Going On Here?
01:08:13.000 : en:Losing It.
01:11:05.000 : en:About Clout.
01:17:12.000 : en:Check On A Cop.
01:19:39.000 : en:Refuge With Jacky.
01:23:22.000 : en:Double Surprise.
01:26:59.000 : en:Blood And Water.
01:29:15.000 : en:Double Cross.
01:32:48.000 : en:About Us.
01:37:35.000 : en:The Trick Never Works.
01:40:36.000 : en:End Credits.
Скриншоты
Скачать

Скачать торрент!

Как скачивать? · Что такое торрент? · Рейтинг и ограничения

Сайт не распространяет и не хранит электронные версии произведений, а лишь предоставляет доступ к создаваемому пользователями каталогу ссылок на торрент-файлы, которые содержат только списки хеш-сумм

[Профиль] [ЛС]
Показать сообщения:    
Ответить на тему

Текущее время: Сегодня 10:08

Часовой пояс: GMT + 4



Вы не можете начинать темы
Вы не можете отвечать на сообщения
Вы не можете редактировать свои сообщения
Вы не можете удалять свои сообщения
Вы не можете голосовать в опросах
Вы не можете прикреплять файлы к сообщениям
Вы не можете скачивать файлы