Временная секретарша / Заместитель / The Temp (Том Холланд / Tom Holland) [1993, США, триллер, драма, WEB-DL 720p] MVO (Paramount) + DVO (Премьер) + AVO (А. Пронин) + Sub Eng + Original Eng

Ответить на тему
 
Автор Сообщение

user ®

Стаж: 7 лет 7 месяцев

Сообщений: 20008

Пост Пост: #1 от 07-Ноя-2015 02:03

[Цитировать]

Временная секретарша / Заместитель / The Temp
Страна: США
Студия: Columbus Circle Films, David Permut Productions, Paramount Pictures
Жанр: триллер, драма
Год выпуска: 1993
Продолжительность: 01:37:09
Перевод: Профессиональный (многоголосый закадровый) Paramount channel
Перевод 2: Профессиональный (двухголосый закадровый) Премьер Видео Фильм
Перевод 3: Авторский (одноголосый закадровый) А. Пронин
Cубтитры: английские
Оригинальная аудиодорожка: английский
Режиссер: Том Холланд / Tom Holland
В ролях: Тимоти Хаттон, Лара Флинн Бойл, Дуайт Шульц, Оливер Платт, Стивен Уэбер, Коллин Флинн, Фэй Данауэй, Скотт Коффи, Дэкин Мэтьюз, Мора Тирни
Описание: Заместитель управляющего кондитерской фирмы Питер Дернс наконец-то завершает длительный курс лечения у психиатра. Между тем, у него появляется новая секретарша Крис. Питер поначалу не нарадуется на новую сотрудницу - толковую, исполнительную, симпатичную. Но затем начинают происходить трагические события, которые прямо или косвенно связаны с Крис. Происходящее принимает угрожающий оборот, и вскоре становится ясно, что Крис ни перед чем не остановится, даже если при этом кто-нибудь будет покалечен или убит.
Доп. информация: За дорожку Paramount channel спасибо vedigo, за дорожку и оцифровку кассеты от "Премьер Видео Фильм" спасибо Fikaloid, за Антона Пронина спасибо _int_.

Sample
Тип релиза: WEB-DL 720p
Контейнер: MKV
Видео: MPEG4 AVC Video, H264, 1280x718, 23.976 fps, 3966 kbps
Аудио: Russian (AC3, 2 ch, 192 kbps, 16 bits, 48.0 KHz) - Paramount channel
Аудио 2: Russian (AC3, 2 ch, 192 kbps, 16 bits, 48.0 KHz) - Премьер Видео Фильм
Аудио 3: Russian (AC3, 1 ch, 128 kbps, 16 bits, 48.0 KHz) - А. Пронин
Аудио 4: English (AC3, 6 ch, 384 kbps, 16 bits, 48.0 KHz) - оригинал
Формат субтитров: softsub (SRT)

MediaInfo
General
Unique ID : 196863036395223271357427784077490488744 (0x941A71118651C44AA2D10D396C3785A8)
Complete name : E:\The Temp 1993 WEB-DL 720p.mkv
Format : Matroska
Format version : Version 4 / Version 2
File size : 3.37 GiB
Duration : 1h 37mn
Overall bit rate : 4 960 Kbps
Encoded date : UTC 2015-10-27 21:31:23
Writing application : mkvmerge v6.1.0 ('Old Devil') built on Mar 2 2013 14:32:37
Writing library : libebml v1.3.0 + libmatroska v1.4.0
Video
ID : 1
Format : AVC
Format/Info : Advanced Video Codec
Format profile : High@L3.1
Format settings, CABAC : No
Format settings, ReFrames : 2 frames
Codec ID : V_MPEG4/ISO/AVC
Duration : 1h 37mn
Bit rate : 3 966 Kbps
Width : 1 280 pixels
Height : 718 pixels
Display aspect ratio : 16:9
Frame rate mode : Constant
Frame rate : 23.976 fps
Color space : YUV
Chroma subsampling : 4:2:0
Bit depth : 8 bits
Scan type : Progressive
Bits/(Pixel*Frame) : 0.180
Stream size : 2.69 GiB (80%)
Language : English
Default : Yes
Forced : No
Color primaries : BT.709
Transfer characteristics : BT.709
Matrix coefficients : BT.709
Audio #1
ID : 2
Format : AC-3
Format/Info : Audio Coding 3
Mode extension : CM (complete main)
Format settings, Endianness : Big
Codec ID : A_AC3
Duration : 1h 37mn
Bit rate mode : Constant
Bit rate : 192 Kbps
Channel count : 2 channels
Channel positions : Front: L R
Sampling rate : 48.0 KHz
Bit depth : 16 bits
Compression mode : Lossy
Stream size : 133 MiB (4%)
Title : Paramount channel
Language : Russian
Default : Yes
Forced : No
Audio #2
ID : 3
Format : AC-3
Format/Info : Audio Coding 3
Mode extension : CM (complete main)
Format settings, Endianness : Big
Codec ID : A_AC3
Duration : 1h 37mn
Bit rate mode : Constant
Bit rate : 192 Kbps
Channel count : 2 channels
Channel positions : Front: L R
Sampling rate : 48.0 KHz
Bit depth : 16 bits
Compression mode : Lossy
Stream size : 133 MiB (4%)
Title : Премьер Видео Фильм
Language : Russian
Default : No
Forced : No
Audio #3
ID : 4
Format : AC-3
Format/Info : Audio Coding 3
Mode extension : CM (complete main)
Format settings, Endianness : Big
Codec ID : A_AC3
Duration : 1h 37mn
Bit rate mode : Constant
Bit rate : 128 Kbps
Channel count : 1 channel
Channel positions : Front: C
Sampling rate : 48.0 KHz
Bit depth : 16 bits
Compression mode : Lossy
Stream size : 88.9 MiB (3%)
Title : А. Пронин
Language : Russian
Default : No
Forced : No
Audio #4
ID : 5
Format : AC-3
Format/Info : Audio Coding 3
Mode extension : CM (complete main)
Format settings, Endianness : Big
Codec ID : A_AC3
Duration : 1h 37mn
Bit rate mode : Constant
Bit rate : 384 Kbps
Channel count : 6 channels
Channel positions : Front: L C R, Side: L R, LFE
Sampling rate : 48.0 KHz
Bit depth : 16 bits
Compression mode : Lossy
Stream size : 267 MiB (8%)
Language : English
Default : No
Forced : No
Text
ID : 6
Format : UTF-8
Codec ID : S_TEXT/UTF8
Codec ID/Info : UTF-8 Plain Text
Language : English
Default : No
Forced : No
Menu
00:00:00.000 : en:No More "Mr. Hyde"
00:05:30.000 : en:Peter's New Assistant
00:14:39.000 : en:Competitors
00:23:49.000 : en:Corporate Battlefield
00:30:48.000 : en:The Estranged Wife
00:42:58.000 : en:Parting Ways
00:47:43.000 : en:Bloody Taste Test
00:54:31.000 : en:Running Out Of Executives
01:00:22.000 : en:Checking References
01:08:04.000 : en:Resurfacing Paranoia
01:18:43.000 : en:"It's Clearing"
01:23:43.000 : en:Sudden Emergency
01:30:05.000 : en:An Answer For Everything
Скриншоты
Скачать

Скачать торрент!

Как скачивать? · Что такое торрент? · Рейтинг и ограничения

Сайт не распространяет и не хранит электронные версии произведений, а лишь предоставляет доступ к создаваемому пользователями каталогу ссылок на торрент-файлы, которые содержат только списки хеш-сумм

[Профиль] [ЛС]
Показать сообщения:    
Ответить на тему

Текущее время: Сегодня 02:07

Часовой пояс: GMT + 4



Вы не можете начинать темы
Вы не можете отвечать на сообщения
Вы не можете редактировать свои сообщения
Вы не можете удалять свои сообщения
Вы не можете голосовать в опросах
Вы не можете прикреплять файлы к сообщениям
Вы не можете скачивать файлы