Скелеты Железного острова / Остров зла / Иерро / La isla del mal / Hierro (Габе Ибаньес / Gabe Ibanez) [2009, Испания, драма, триллер, детектив, BDRip 720p] MVO + VO + Sub (Rus, Eng) + Original Spa

Ответить на тему
 
Автор Сообщение

user ®

Стаж: 7 лет 7 месяцев

Сообщений: 20008

Пост Пост: #1 от 07-Ноя-2015 02:03

[Цитировать]

Скелеты Железного острова / Остров зла / Иерро /
La isla del mal / Hierro
- Страна: Испания
Студия: Telecinco Cinema, Madrugada Films
Жанр: драма, триллер, детектив
Год выпуска: 2009
Продолжительность: 01:28:50
Перевод 1: Профессиональный (многоголосый закадровый)
Перевод 2: Одноголосый закадровый - [url=http://***/forum/profile.php?mode=viewprofile&u=4007133]acolith[/url]
Cубтитры: русские, английские
Оригинальная аудиодорожка: испанский-Режиссер: Габе Ибаньес / Gabe Ibanez
В ролях: Елена Анайя (Maria), Беа Сегура (Laura), Мар Содуп (Tania), Андрес Херрера (Antonio), Мириам Корреа (Julia), Кайет Родригес (Diego), Хавьер Мейя (Matias), Уго Арбуэс (Mateo), Рэкуэл Сальвадор (Elena), Хорхе Лобо (Capitan de barco), Хон Ариньо (Forense)-Описание: Мать с сыном отправляются отдыхать на остров Йерро, но неожиданное исчезновение мальчика ставит героиню перед непростым выбором: смириться с утратой или во что бы то ни стало разобраться в случившемся и найти ребенка. Героине придется пройти по тонкой грани между реальностью и миром ужасающих видений, ведущих к безумию. Тонкое хитросплетение судеб, распутав которое можно получить ответы на все вопросы.- -Тип релиза: [url=http://***/forum/viewtopic.php?t=2660494]BDRip 720p[/url]
Контейнер: MKV
Видео: x.264, 1280x720, 5570 kbps, 24 fps, 0.252 bpf
Аудио 1: AC3, 192 kbps, 2.0 channels, 48000 Hz - MVO
Аудио 2: AC3, 640 kbps, 5.1 channels, 48000 Hz - VO acolith
Аудио 3: AC3, 640 kbps, 5.1 channels, 48000 Hz - Original
Формат субтитров: softsub (SRT)-Скриншоты Резервные скриншоты
-
MediaInfo
Format : Matroska
Format version : Version 4 / Version 2
File size : 4.37 GiB
Duration : 1h 28mn
Overall bit rate : 7 040 Kbps
Movie name : Скелеты Железного острова / Hierro (2009) BDRip 720p
Encoded date : UTC 2015-11-05 08:48:17
Writing application : mkvmerge v8.5.2 ('Crosses') 32bit
Writing library : libebml v1.3.3 + libmatroska v1.4.4
Attachements : cover.png
Video
ID : 1
Format : AVC
Format/Info : Advanced Video Codec
Format profile : High@L4.1
Format settings, CABAC : Yes
Format settings, ReFrames : 9 frames
Codec ID : V_MPEG4/ISO/AVC
Duration : 1h 28mn
Bit rate : 5 570 Kbps
Width : 1 280 pixels
Height : 720 pixels
Display aspect ratio : 16:9
Frame rate mode : Constant
Frame rate : 24.000 fps
Color space : YUV
Chroma subsampling : 4:2:0
Bit depth : 8 bits
Scan type : Progressive
Bits/(Pixel*Frame) : 0.252
Stream size : 3.37 GiB (77%)
Writing library : x264 core 148 r2638 7599210
Encoding settings : cabac=1 / ref=9 / deblock=1:-3:-3 / analyse=0x3:0x133 / me=umh / subme=10 / psy=1 / psy_rd=1.00:0.00 / mixed_ref=1 / me_range=48 / chroma_me=1 / trellis=2 / 8x8dct=1 / cqm=0 / deadzone=21,11 / fast_pskip=0 / chroma_qp_offset=-2 / threads=3 / lookahead_threads=1 / sliced_threads=0 / nr=0 / decimate=1 / interlaced=0 / bluray_compat=0 / constrained_intra=0 / bframes=10 / b_pyramid=2 / b_adapt=2 / b_bias=0 / direct=3 / weightb=1 / open_gop=0 / weightp=2 / keyint=240 / keyint_min=24 / scenecut=40 / intra_refresh=0 / rc_lookahead=60 / rc=2pass / mbtree=0 / bitrate=5570 / ratetol=1.0 / qcomp=0.60 / qpmin=0 / qpmax=69 / qpstep=4 / cplxblur=20.0 / qblur=0.5 / vbv_maxrate=50000 / vbv_bufsize=62500 / nal_hrd=none / filler=0 / ip_ratio=1.30 / pb_ratio=1.30 / aq=1:1.00
Language : Spanish
Default : Yes
Forced : No
Audio #1
ID : 2
Format : AC-3
Format/Info : Audio Coding 3
Mode extension : CM (complete main)
Format settings, Endianness : Big
Codec ID : A_AC3
Duration : 1h 28mn
Bit rate mode : Constant
Bit rate : 192 Kbps
Channel(s) : 2 channels
Channel positions : Front: L R
Sampling rate : 48.0 KHz
Compression mode : Lossy
Stream size : 122 MiB (3%)
Title : MVO
Language : Russian
Default : Yes
Forced : No
Audio #2
ID : 3
Format : AC-3
Format/Info : Audio Coding 3
Mode extension : CM (complete main)
Format settings, Endianness : Big
Codec ID : A_AC3
Duration : 1h 28mn
Bit rate mode : Constant
Bit rate : 640 Kbps
Channel(s) : 6 channels
Channel positions : Front: L C R, Side: L R, LFE
Sampling rate : 48.0 KHz
Compression mode : Lossy
Stream size : 407 MiB (9%)
Title : VO - acolith
Language : Russian
Default : No
Forced : No
Audio #3
ID : 4
Format : AC-3
Format/Info : Audio Coding 3
Mode extension : CM (complete main)
Format settings, Endianness : Big
Codec ID : A_AC3
Duration : 1h 28mn
Bit rate mode : Constant
Bit rate : 640 Kbps
Channel(s) : 6 channels
Channel positions : Front: L C R, Side: L R, LFE
Sampling rate : 48.0 KHz
Compression mode : Lossy
Stream size : 407 MiB (9%)
Title : Original
Language : Spanish
Default : No
Forced : No
Text #1
ID : 5
Format : UTF-8
Codec ID : S_TEXT/UTF8
Codec ID/Info : UTF-8 Plain Text
Language : Russian
Default : No
Forced : No
Text #2
ID : 6
Format : UTF-8
Codec ID : S_TEXT/UTF8
Codec ID/Info : UTF-8 Plain Text
Language : English
Default : No
Forced : No
Menu
00:00:00.000 : en:00:00:00.000
00:05:32.833 : en:00:05:32.833
00:12:02.625 : en:00:12:02.625
00:19:59.625 : en:00:19:59.625
00:27:56.250 : en:00:27:56.250
00:36:24.625 : en:00:36:24.625
00:45:24.083 : en:00:45:24.083
00:51:01.333 : en:00:51:01.333
01:00:22.458 : en:01:00:22.458
01:08:12.417 : en:01:08:12.417
01:14:07.000 : en:01:14:07.000
01:26:01.000 : en:01:26:01.000
Скачать

Скачать торрент!

Как скачивать? · Что такое торрент? · Рейтинг и ограничения

Сайт не распространяет и не хранит электронные версии произведений, а лишь предоставляет доступ к создаваемому пользователями каталогу ссылок на торрент-файлы, которые содержат только списки хеш-сумм

[Профиль] [ЛС]
Показать сообщения:    
Ответить на тему

Текущее время: Сегодня 07:02

Часовой пояс: GMT + 4



Вы не можете начинать темы
Вы не можете отвечать на сообщения
Вы не можете редактировать свои сообщения
Вы не можете удалять свои сообщения
Вы не можете голосовать в опросах
Вы не можете прикреплять файлы к сообщениям
Вы не можете скачивать файлы