Большое путешествие великовозрастных балбесов / National Lampoon\'s Senior Trip (Келли Макин / Kelly Makin) [1995, США, комедия, HDTV 1080i] AVO (Ю. Сербин) + MVO (ТРК Россия) + DVO (SDI Media) + Original Eng + Sub Eng

Ответить на тему
 
Автор Сообщение

user ®

Стаж: 7 лет 7 месяцев

Сообщений: 20008

Пост Пост: #1 от 07-Ноя-2015 02:03

[Цитировать]

National Lampoon's Senior Trip-Большое путешествие великовозрастных балбесов-«Stupid tricks. Outrageous chaos. Total destruction. They're taking it on the road»- Страна: США
Жанр: Комедия
Год выпуска: 1995
Продолжительность: 01:30:49
Перевод : Авторский (одноголосый закадровый) - Юрий Сербин
Профессиональный (многоголосый закадровый) - ТРК Россия
Профессиональный (двухголосый закадровый) - SDI Media
Оригинальная аудиодорожка: Английская
Cубтитры: Английские
Режиссер: Келли Макин
В ролях: Мэтт Фрюэр, Валери Махаффи, Лоуренс Дэйн, Томми Чонг, Джереми Реннер, Роб Мур, Тара Стронг, Николь де Боер, Сергио Ди Зио, Фиона Леви, Дэнни Смит, Лори Энн Альтер, Джек Джессоп, Кэй Тремблэ, Джек Ньюман, Саймон Синн и др.
Описание: Ученики средней школы Фейрмонт — старшеклассники Марк «Дагз» д’Агастино и Реджи Берри решают устроить вечеринку в доме директора школы Масса в его отсутствие, пригласив туда весь класс. Узнав об их затее, директор Масс прибегает домой в самый разгар вечеринки и накрывает там всю честную компанию. В наказание за эту выходку директор оставляет весь класс после уроков для того чтобы они написали письмо президенту о том, что их не устраивает в современной системе образования. Письмо берется писать Лиза Перкинс — отличница, самая умная и приличная девушка в классе. Письмо доходит до президента и он, поражённый глубиной мысли письма, приглашает их класс в Вашингтон для поддержки своей образовательной программы. Чтобы передать приглашение, в школу приезжает сенатор Лерман. В ходе беседы с учениками он выясняет, что письмо написано одной из учениц, а все остальные — полные придурки, и понимает, что их приезд в Вашингтон опозорит президента и его программу. Решив воспользоваться ситуацией для продвижения собственного «Билля об образовании», Лерман, угрожая директору Массу, поручает ему доставить именно этот класс в Вашингтон. В назначенный день к школе подъезжает жёлтый автобус, который должен доставить их в Вашингтон. Сопровождает класс сам директор Масс и учительница мисс Милфорд. Реджи узнает в водителе автобуса некогда известного курильщика марихуаны — Рэда- «Короля косяков». Поездка началась...Доп. информация: Дорожка: Юрия Сербина из [url=http://***/forum/viewtopic.php?t=4797282]этой раздачи[/url]
Дорожка: ТРК Россия из [url=http://***/forum/viewtopic.php?t=5024581]этой раздачи[/url] - был подправлен незначительный плавающий рассинхрон, без перекодировки.
Спасибо за дорожки!!!
Сэмпл: National.Lampoon's.Senior.Trip.1995.HDTV.1080i.3xRus.Eng.Sub.Sample.mkv
Качество видео: HDTV 1080i
Формат видео: MKV
Видео: MPEG-4 AVC, 1920x1080i, 23.976 fps, ~ 7 553 Кбит/с,
Аудио 1: Юрий Сербин AC3\2.0\48.0KHz\192 Kbps
Аудио 2: ТРК Россия AC3\2.0\48.0KHz\192 Kbps
Аудио 3: SDI Media AC3\2.0\48.0KHz\192 Kbps
Аудио 4: English - Original DTS\5.1\48kHz\ 755kbps
Формат субтитров: softsub (SRT)
MediaInfo
Complete name : E:\Rutracker\National Lampoon's Senior Trip\National.Lampoon's.Senior.Trip.1995.HDTV.1080i.3xRus.Eng.Sub.mkv
Format : Matroska
Format version : Version 4 / Version 2
File size : 5.64 GiB
Duration : 1h 30mn
Overall bit rate : 8 881 Kbps
Encoded date : UTC 2015-10-27 13:35:33
Writing application : mkvmerge v8.2.0 ('World of Adventure') 64bit
Writing library : libebml v1.3.1 + libmatroska v1.4.2
DURATION : 01:30:49.344000000
NUMBER_OF_FRAMES : 170292
NUMBER_OF_BYTES : 130784256
_STATISTICS_WRITING_APP : mkvmerge v8.2.0 ('World of Adventure') 64bit
_STATISTICS_WRITING_DATE_UT : 2015-10-27 13:35:33
_STATISTICS_TAGS : BPS DURATION NUMBER_OF_FRAMES NUMBER_OF_BYTES
Video
ID : 1
Format : AVC
Format/Info : Advanced Video Codec
Format profile : High@L4
Format settings, CABAC : Yes
Format settings, ReFrames : 4 frames
Format settings, GOP : M=4, N=28
Codec ID : V_MPEG4/ISO/AVC
Duration : 1h 30mn
Bit rate : 7 374 Kbps
Width : 1 920 pixels
Height : 1 080 pixels
Display aspect ratio : 16:9
Frame rate mode : Constant
Frame rate : 23.976 fps
Standard : Component
Color space : YUV
Chroma subsampling : 4:2:0
Bit depth : 8 bits
Scan type : Interlaced
Scan order : Top Field First
Bits/(Pixel*Frame) : 0.148
Stream size : 4.68 GiB (83%)
Title : National Lampoon's Senior Trip 1995 HDTV 1080i
Language : English
Default : Yes
Forced : No
Color range : Limited
Color primaries : BT.709
Transfer characteristics : BT.709
Matrix coefficients : BT.709
DURATION : 01:30:49.256000000
NUMBER_OF_FRAMES : 261302
NUMBER_OF_BYTES : 5140984530
_STATISTICS_WRITING_APP : mkvmerge v8.2.0 ('World of Adventure') 64bit
_STATISTICS_WRITING_DATE_UT : 2015-10-27 13:35:33
_STATISTICS_TAGS : BPS DURATION NUMBER_OF_FRAMES NUMBER_OF_BYTES
Audio #1
ID : 2
Format : AC-3
Format/Info : Audio Coding 3
Mode extension : CM (complete main)
Format settings, Endianness : Big
Codec ID : A_AC3
Duration : 1h 30mn
Bit rate mode : Constant
Bit rate : 192 Kbps
Channel(s) : 2 channels
Channel positions : Front: L R
Sampling rate : 48.0 KHz
Compression mode : Lossy
Stream size : 125 MiB (2%)
Title : Ю. Сербин AC3 2.0
Language : Russian
Default : Yes
Forced : No
Audio #2
ID : 3
Format : AC-3
Format/Info : Audio Coding 3
Mode extension : CM (complete main)
Format settings, Endianness : Big
Codec ID : A_AC3
Duration : 1h 30mn
Bit rate mode : Constant
Bit rate : 192 Kbps
Channel(s) : 2 channels
Channel positions : Front: L R
Sampling rate : 48.0 KHz
Compression mode : Lossy
Stream size : 125 MiB (2%)
Title : ТК Россия AC3 2.0
Language : Russian
Default : No
Forced : No
Audio #3
ID : 4
Format : AC-3
Format/Info : Audio Coding 3
Mode extension : CM (complete main)
Format settings, Endianness : Big
Codec ID : A_AC3
Duration : 1h 30mn
Bit rate mode : Constant
Bit rate : 192 Kbps
Channel(s) : 2 channels
Channel positions : Front: L R
Sampling rate : 48.0 KHz
Compression mode : Lossy
Stream size : 125 MiB (2%)
Title : SDI Media AC3 2.0
Language : Russian
Default : No
Forced : No
Audio #4
ID : 5
Format : DTS
Format/Info : Digital Theater Systems
Mode : 16
Format settings, Endianness : Big
Codec ID : A_DTS
Duration : 1h 30mn
Bit rate mode : Constant
Bit rate : 755 Kbps
Channel(s) : 6 channels
Channel positions : Front: L C R, Side: L R, LFE
Sampling rate : 48.0 KHz
Bit depth : 24 bits
Compression mode : Lossy
Stream size : 490 MiB (8%)
Title : Original DTS 5.1
Language : English
Default : No
Forced : No
Text
ID : 6
Format : UTF-8
Codec ID : S_TEXT/UTF8
Codec ID/Info : UTF-8 Plain Text
Language : English
Default : No
Forced : No
Скриншоты 07.11.2015 Раздача обновлена. Заменены субтитры! Перекачайте торрент!
Скачать

Скачать торрент!

Как скачивать? · Что такое торрент? · Рейтинг и ограничения

Сайт не распространяет и не хранит электронные версии произведений, а лишь предоставляет доступ к создаваемому пользователями каталогу ссылок на торрент-файлы, которые содержат только списки хеш-сумм

[Профиль] [ЛС]
Показать сообщения:    
Ответить на тему

Текущее время: Сегодня 18:22

Часовой пояс: GMT + 4



Вы не можете начинать темы
Вы не можете отвечать на сообщения
Вы не можете редактировать свои сообщения
Вы не можете удалять свои сообщения
Вы не можете голосовать в опросах
Вы не можете прикреплять файлы к сообщениям
Вы не можете скачивать файлы