Секс-пленка / Секс-видео / SX Tape / sxtape (Бернард Роуз / Bernard Rose) [2013, США, триллер, ужасы, BDRip 720p] MVO (BadCatStudio) + Original Eng + Sub (Rus, Eng)

Ответить на тему
 
Автор Сообщение

user ®

Стаж: 7 лет 7 месяцев

Сообщений: 20008

Пост Пост: #1 от 06-Ноя-2015 01:18

[Цитировать]

Секс-видео / SXTape Год выпуска: 2013
Страна: США
Жанр: ужасы, триллер
Продолжительность: 01:24:14
Перевод: Любительский (многоголосый, закадровый) [BadCatStudio]
Cубтитры: русские, английские
Оригинальная аудиодорожка: английский
Режиссёр: Бернард Роуз-В ролях: Кекир Фоли, Йен Дункан, Крис Кой, Диана Гарсиа, Джули Ариелла Маркус, Эрик Нил Гутьеррес, Даниэль Фаральдо и др.-Описание: Адам и Джилл, в надежде оживить свои отношения, решают снять интимное видео в старом заброшенном особняке. Внезапно становится очевидным тот факт, что они вовсе не одиноки в этой новой зловещей среде. И вскоре пара понимает, что некоторые секс ленты вообще не стоит снимать, поскольку их странная затея молниеносно превращается в отчаянную борьбу за выживание...
Внимание! Содержится ненормативная лексика.-Качество: BDRip 720p
Формат: MKV
Видео кодек: H264
Аудио кодек: AC3
Видео: 1280x720, 24.000 fps, x264, 5914 kbps avg, ~0.267 bit/pixel
Аудио #1: 48 kHz, AC3, 6 ch, 640.00 kbps avg MVO [BadCatStudio]
Аудио #2: 48 kHz, AC3, 6 ch, 640.00 kbps avg Original
Субтитры: Русские, Английский-Перевод: rackyoursoul, zveromancer, reutov88
Закадровый текст читали: Рина Горькая, Владимир Рамазанов, Андрей Зверев, Анна Велес, Георгий Панин, Александр Кузнецов, МираБелла, Гузель Сахабутдинова
Работа со звуком: Павел Шевчук, Андрей Зверев, Александр Артемов-Сэмпл / IMDB / КиноПоиск-MediaInfo
Общее
Уникальный идентификатор                 : 255006688395874542996127857001229450334 (0xBFD88070B9E28F07AEE373221E23FC5E)
Полное имя                               : D:\НБФ\19456\Sxtape.2013.BDRip.720p.Rus.Eng-BadCatStudio.mkv
Формат                                   : Matroska
Версия формата                           : Version 4 / Version 2
Размер файла                             : 4,23 Гбайт
Продолжительность                        : 1 ч. 24 м.
Общий поток                              : 7194 Кбит/сек
Дата кодирования                         : UTC 2015-10-16 13:01:52
Программа кодирования                    : mkvmerge v8.4.0 ('A better way to fly') 32bit
Библиотека кодирования                   : libebml v1.3.1 + libmatroska v1.4.2
DURATION                                 : 01:24:14.176000000
NUMBER_OF_FRAMES                         : 157943
NUMBER_OF_BYTES                          : 404334080
_STATISTICS_WRITING_APP                  : mkvmerge v8.4.0 ('A better way to fly') 32bit
_STATISTICS_WRITING_DATE_UTC             : 2015-10-16 13:01:52
_STATISTICS_TAGS                         : BPS DURATION NUMBER_OF_FRAMES NUMBER_OF_BYTES
Видео
Идентификатор                            : 1
Формат                                   : AVC
Формат/Информация                        : Advanced Video Codec
Профиль формата                          : High@L4.1
Параметр CABAC формата                   : Да
Параметр ReFrames формата                : 5 кадров
Идентификатор кодека                     : V_MPEG4/ISO/AVC
Продолжительность                        : 1 ч. 24 м.
Битрейт                                  : 5914 Кбит/сек
Ширина                                   : 1280 пикселей
Высота                                   : 720 пикселей
Соотношение сторон                       : 16:9
Режим частоты кадров                     : Постоянный
Частота кадров                           : 24,000 кадра/сек
Цветовое пространство                    : YUV
Субдискретизация насыщенности            : 4:2:0
Битовая глубина                          : 8 бит
Тип развёртки                            : Прогрессивная
Бит/(Пиксели*Кадры)                      : 0.267
Размер потока                            : 3,40 Гбайт (80%)
Библиотека кодирования                   : x264 core 142 r2431 ac76440
Настройки программы                      : cabac=1 / ref=5 / deblock=1:0:0 / analyse=0x3:0x133 / me=umh / subme=7 / psy=1 / psy_rd=1.00:0.00 / mixed_ref=1 / me_range=16 / chroma_me=1 / trellis=1 / 8x8dct=1 / cqm=0 / deadzone=21,11 / fast_pskip=0 / chroma_qp_offset=-2 / threads=18 / lookahead_threads=3 / sliced_threads=0 / nr=0 / decimate=1 / interlaced=0 / bluray_compat=0 / constrained_intra=0 / bframes=3 / b_pyramid=2 / b_adapt=1 / b_bias=0 / direct=1 / weightb=1 / open_gop=0 / weightp=2 / keyint=250 / keyint_min=23 / scenecut=40 / intra_refresh=0 / rc_lookahead=40 / rc=2pass / mbtree=1 / bitrate=5914 / ratetol=1.0 / qcomp=0.60 / qpmin=0 / qpmax=69 / qpstep=4 / cplxblur=20.0 / qblur=0.5 / ip_ratio=1.40 / aq=1:1.00
Язык                                     : English
Default                                  : Да
Forced                                   : Нет
DURATION                                 : 01:24:14.088000000
NUMBER_OF_FRAMES                         : 121298
NUMBER_OF_BYTES                          : 3734712153
_STATISTICS_WRITING_APP                  : mkvmerge v8.4.0 ('A better way to fly') 32bit
_STATISTICS_WRITING_DATE_UTC             : 2015-10-16 13:01:52
_STATISTICS_TAGS                         : BPS DURATION NUMBER_OF_FRAMES NUMBER_OF_BYTES
Аудио #1
Идентификатор                            : 2
Формат                                   : AC-3
Формат/Информация                        : Audio Coding 3
Расширение режима                        : CM (complete main)
Параметр Endianness формата              : Big
Идентификатор кодека                     : A_AC3
Продолжительность                        : 1 ч. 24 м.
Вид битрейта                             : Постоянный
Битрейт                                  : 640 Кбит/сек
Каналы                                   : 6 каналов
Расположение каналов                     : Front: L C R, Side: L R, LFE
Частота                                  : 48,0 КГц
Битовая глубина                          : 16 бит
Метод сжатия                             : С потерями
Размер потока                            : 386 Мбайт (9%)
Заголовок                                : MVO [BadCatStudio]
Язык                                     : Russian
Default                                  : Да
Forced                                   : Нет
Аудио #2
Идентификатор                            : 3
Формат                                   : AC-3
Формат/Информация                        : Audio Coding 3
Расширение режима                        : CM (complete main)
Параметр Endianness формата              : Big
Идентификатор кодека                     : A_AC3
Продолжительность                        : 1 ч. 24 м.
Вид битрейта                             : Постоянный
Битрейт                                  : 640 Кбит/сек
Каналы                                   : 6 каналов
Расположение каналов                     : Front: L C R, Side: L R, LFE
Частота                                  : 48,0 КГц
Битовая глубина                          : 16 бит
Метод сжатия                             : С потерями
Размер потока                            : 386 Мбайт (9%)
Заголовок                                : Original
Язык                                     : English
Default                                  : Нет
Forced                                   : Нет
Текст #1
Идентификатор                            : 4
Формат                                   : UTF-8
Идентификатор кодека                     : S_TEXT/UTF8
Идентификатор кодека/Информация          : UTF-8 Plain Text
Язык                                     : Russian
Default                                  : Нет
Forced                                   : Нет
Текст #2
Идентификатор                            : 5
Формат                                   : UTF-8
Идентификатор кодека                     : S_TEXT/UTF8
Идентификатор кодека/Информация          : UTF-8 Plain Text
Язык                                     : English
Default                                  : Нет
Forced                                   : Нет
Меню
00:00:00.000                             : en:00:00:00.000
00:06:40.500                             : en:00:06:40.500
00:11:06.417                             : en:00:11:06.417
00:23:01.000                             : en:00:23:01.000
00:32:09.542                             : en:00:32:09.542
00:40:48.333                             : en:00:40:48.333
00:47:38.792                             : en:00:47:38.792
00:52:51.333                             : en:00:52:51.333
01:01:22.208                             : en:01:01:22.208
01:09:52.500                             : en:01:09:52.500
01:19:26.875                             : en:01:19:26.875
Скриншоты
Скачать

Скачать торрент!

Как скачивать? · Что такое торрент? · Рейтинг и ограничения

Сайт не распространяет и не хранит электронные версии произведений, а лишь предоставляет доступ к создаваемому пользователями каталогу ссылок на торрент-файлы, которые содержат только списки хеш-сумм

[Профиль] [ЛС]
Показать сообщения:    
Ответить на тему

Текущее время: Сегодня 03:51

Часовой пояс: GMT + 4



Вы не можете начинать темы
Вы не можете отвечать на сообщения
Вы не можете редактировать свои сообщения
Вы не можете удалять свои сообщения
Вы не можете голосовать в опросах
Вы не можете прикреплять файлы к сообщениям
Вы не можете скачивать файлы