Первая любовь / Outside Providence (Майкл Корренте / Michael Corrente) [1999, США, комедия, мелодрама, драма, WEB-DL 1080p] MVO + Sub Rus, Eng + Original Eng

Ответить на тему
 
Автор Сообщение

user ®

Стаж: 7 лет 7 месяцев

Сообщений: 20008

Пост Пост: #1 от 06-Ноя-2015 01:18

[Цитировать]

Первая любовь / Outside Providence
Страна: США
Студия: Miramax, Eagle Beach
Жанр: комедия, мелодрама, драма
Год выпуска: 1999
Продолжительность: 01:36:01
Перевод: Профессиональный (многоголосый закадровый)
Cубтитры: русские, английские
Оригинальная аудиодорожка: английский
Режиссер: Майкл Корренте / Michael Corrente
В ролях: Шон Хэтоси, Томми Боун, Саманта Лавин, Джонатан Брэндис, Адам Лаворна, Джесси Лич, Джон Абрахамс, Алек Болдуин, Ричард Дженкинс, Джордж Венд и др.
Описание: Никогда не знаешь — где найдешь, где потеряешь…
Когда Тим Данфи с приятелями врезается в припаркованную полицейскую машину, терпение его отца лопнуло и Данфи — старший отправляет сына в спецшколу. Драконовские порядки этого закрытого заведения не стали для Тима преградой: он и здесь оказался на особом счету. Неизвестно, чем бы закончились его «подвиги», не повстречай он Джейн.
II Сэмпл II IMDB II
Тип релиза: WEB-DL 1080p
Контейнер: MKV
Видео: AVC / 1920x1036 / 1.85:1 / 23.976fps / Bit rate 4901Kbps
Аудио 1: AC3 / 48.0 KHz / 6ch. / 384kbps / rus / mvo
Аудио 2: AC3 / 48.0 KHz / 6ch. / 384kbps / eng / DVD
Аудио 3: AAC-LC / 48.0 KHz / 2ch. / 159kbps / eng / WEB-DL
Формат субтитров: softsub (SRT)
MediaInfo
Общее
Уникальный идентификатор : 254201302545237501937232717063945198621 (0xBF3D63DA25AB11E09E8643759AC41C1D)
Полное имя : G:\!!!_torrent\Outside.Providence.1999.WEB-DL.1080p_by_vedigo.mkv
Формат : Matroska
Версия формата : Version 4 / Version 2
Размер файла : 3,98 Гбайт
Продолжительность : 1 ч. 36 м.
Общий поток : 5928 Кбит/сек
Название фильма : Outside.Providence.1999.WEB-DL.1080p_by_vedigo
Дата кодирования : UTC 2015-10-29 01:36:32
Программа кодирования : mkvmerge v8.5.1 ('Where you lead I will follow') 64bit
Библиотека кодирования : libebml v1.3.3 + libmatroska v1.4.4
DURATION : 01:33:22.028000000
NUMBER_OF_FRAMES : 1633
NUMBER_OF_BYTES : 51555
_STATISTICS_WRITING_APP : mkvmerge v8.5.1 ('Where you lead I will follow') 64bit
_STATISTICS_WRITING_DATE_UTC : 2015-10-29 01:36:32
_STATISTICS_TAGS : BPS DURATION NUMBER_OF_FRAMES NUMBER_OF_BYTES
Видео
Идентификатор : 1
Формат : AVC
Формат/Информация : Advanced Video Codec
Профиль формата : High@L4
Параметр CABAC формата : Да
Параметр ReFrames формата : 4 кадра
Идентификатор кодека : V_MPEG4/ISO/AVC
Продолжительность : 1 ч. 36 м.
Ширина : 1920 пикселей
Высота : 1036 пикселей
Соотношение сторон : 1,85:1
Режим частоты кадров : Постоянный
Частота кадров : 23,976 кадра/сек
Цветовое пространство : YUV
Субдискретизация насыщенности : 4:2:0
Битовая глубина : 8 бит
Тип развёртки : Прогрессивная
Заголовок : Outside.Providence.1999.WEB-DL.1080p_by_vedigo
Default : Да
Forced : Нет
Цветовой диапазон : Limited
Основные цвета : BT.709
Характеристики трансфера : BT.709
Коэффициенты матрицы : BT.709
Аудио #1
Идентификатор : 2
Формат : AC-3
Формат/Информация : Audio Coding 3
Расширение режима : CM (complete main)
Параметр Endianness формата : Big
Идентификатор кодека : A_AC3
Продолжительность : 1 ч. 36 м.
Вид битрейта : Постоянный
Битрейт : 384 Кбит/сек
Каналы : 6 каналов
Расположение каналов : Front: L C R, Side: L R, LFE
Частота : 48,0 КГц
Метод сжатия : С потерями
Размер потока : 264 Мбайт (6%)
Заголовок : MVO
Язык : Russian
Default : Да
Forced : Нет
Аудио #2
Идентификатор : 3
Формат : AC-3
Формат/Информация : Audio Coding 3
Расширение режима : CM (complete main)
Параметр Endianness формата : Big
Идентификатор кодека : A_AC3
Продолжительность : 1 ч. 36 м.
Вид битрейта : Постоянный
Битрейт : 384 Кбит/сек
Каналы : 6 каналов
Расположение каналов : Front: L C R, Side: L R, LFE
Частота : 48,0 КГц
Метод сжатия : С потерями
Размер потока : 264 Мбайт (6%)
Заголовок : original @ DVD
Язык : English
Default : Нет
Forced : Нет
Аудио #3
Идентификатор : 4
Формат : AAC
Формат/Информация : Advanced Audio Codec
Профиль формата : LC
Идентификатор кодека : A_AAC
Продолжительность : 1 ч. 36 м.
Каналы : 2 канала
Расположение каналов : Front: L R
Частота : 48,0 КГц
Метод сжатия : С потерями
Заголовок : original @ WEB-DL
Язык : English
Default : Нет
Forced : Нет
Текст #1
Идентификатор : 5
Формат : UTF-8
Идентификатор кодека : S_TEXT/UTF8
Идентификатор кодека/Информация : UTF-8 Plain Text
Заголовок : subtitle rus
Язык : Russian
Default : Нет
Forced : Нет
Текст #2
Идентификатор : 6
Формат : UTF-8
Идентификатор кодека : S_TEXT/UTF8
Идентификатор кодека/Информация : UTF-8 Plain Text
Заголовок : subtitle eng
Язык : English
Default : Нет
Forced : Нет
Скриншоты
Скачать

Скачать торрент!

Как скачивать? · Что такое торрент? · Рейтинг и ограничения

Сайт не распространяет и не хранит электронные версии произведений, а лишь предоставляет доступ к создаваемому пользователями каталогу ссылок на торрент-файлы, которые содержат только списки хеш-сумм

[Профиль] [ЛС]
Показать сообщения:    
Ответить на тему

Текущее время: Сегодня 18:26

Часовой пояс: GMT + 4



Вы не можете начинать темы
Вы не можете отвечать на сообщения
Вы не можете редактировать свои сообщения
Вы не можете удалять свои сообщения
Вы не можете голосовать в опросах
Вы не можете прикреплять файлы к сообщениям
Вы не можете скачивать файлы