Фуксия – маленькая ведьма / Foeksia de miniheks / Fuchsia the Mini-Witch (Йохан Ниженюс / Johan Nijenhuis) [2010, Нидерланды, детский, семейный, фэнтези, сказка, BDRemux 1080i] 2 x MVO + Original Dut

Ответить на тему
 
Автор Сообщение

user ®

Стаж: 7 лет 7 месяцев

Сообщений: 20008

Пост Пост: #1 от 06-Ноя-2015 01:18

[Цитировать]

Фуксия – маленькая ведьма / Foeksia de miniheks / Fuchsia the Mini-Witch- Страна: Нидерланды
Студия: Nijenhuis & de Levita Film & TV B.V., Walt Disney Studios
Жанр: детский, семейный, фэнтези, сказка
Год выпуска: 2010
Продолжительность: 01:24:31-Перевод 1: Профессиональный (многоголосый закадровый) - SDI Media по заказу т/к Gulli
Перевод 2: Профессиональный (многоголосый закадровый)
Cубтитры: нет
Оригинальная аудиодорожка: английский-Режиссер: Йохан Ниженюс / Johan Nijenhuis
В ролях: Рейчел Вердель, Порги Франссен, Аннет Мальэрб, Марсель Хенсема, Lorenso van Sligtenhorst, Kara Borus, Eefje Paddenberg, Melanie Reindertaen, Chantal Wildering, Валери Пос...- | Релиз: -Описание: Маленькая ведьма Фуксия хочет научиться творить чудеса, как и ее приемный отец. Она посещает школу ведьм. Там Фуксия учится колдовству и умению летать на метле. Но ее магия часто дает неожиданные результаты. Это не останавливает маленькую колдунью — ей очень интересен мир людей, в котором она знакомится с мальчиком Томми…-Доп. информация:
- Спасибо grandmajor и GVR232 за помощь при подготовке релиза.
- Работа со звуком - xfiles.-Семпл: http://sendfile.su/1169708-Тип релиза: BDRemux 1080i
Контейнер: MKV
Видео: MPEG-4 AVC Video / 21756 kbps / 1920x1080i / 25 fps / 16:9 / High Profile 4.1
Аудио 1: Русский / Dolby Digital Audio / 2.0 / 48 kHz / 224 kbps / DN -4dB - SDI Media по заказу т/к Gulli
Аудио 2: Русский / Dolby Digital Audio / 2.0 / 48 kHz / 224 kbps / DN -4dB
Аудио 3: Dutch / DTS-HD Master Audio / 5.1 / 48 kHz / 1970 kbps / 16-bit (DTS Core: 5.1 / 48 kHz / 1509 kbps / 16-bit)
MediaInfo
GeneralUnique ID : 237357485019059902445547124275385582636 (0xB2916387E3D00F508F1F56F025EDC42C)Complete name : Foeksia.de.miniheks.2010.BDRemux.1080i-rutracker.xfiles.mkvFormat : MatroskaFormat version : Version 4 / Version 2File size : 14.3 GiBDuration : 1h 24mnOverall bit rate mode : VariableOverall bit rate : 24.2 MbpsMovie name : Foeksia.de.miniheks.2010.BDRemux.1080i-rutracker.xfilesEncoded date : UTC 2015-10-31 10:00:36Writing application : mkvmerge v8.3.0 ('Over the Horizon') 64bitWriting library : libebml v1.3.1 + libmatroska v1.4.2Attachements : Cover.jpg
VideoID : 1Format : AVCFormat/Info : Advanced Video CodecFormat profile : High@L4.1Format settings, CABAC : YesFormat settings, ReFrames : 3 framesCodec ID : V_MPEG4/ISO/AVCDuration : 1h 24mnBit rate mode : VariableMaximum bit rate : 30.1 MbpsWidth : 1 920 pixelsHeight : 1 080 pixelsDisplay aspect ratio : 16:9Frame rate mode : ConstantFrame rate : 25.000 fpsStandard : NTSCColor space : YUVChroma subsampling : 4:2:0Bit depth : 8 bitsScan type : InterlacedScan order : Top Field FirstTitle : [url=http://***/forum/viewtopic.php?t=5107719]http://***/forum/viewtopic.php?t=5107719[/url]Default : YesForced : NoColor range : LimitedColor primaries : BT.709Transfer characteristics : BT.709Matrix coefficients : BT.709
Audio #1ID : 2Format : AC-3Format/Info : Audio Coding 3Mode extension : CM (complete main)Format settings, Endianness : BigCodec ID : A_AC3Duration : 1h 24mnBit rate mode : ConstantBit rate : 224 KbpsChannel(s) : 2 channelsChannel positions : Front: L RSampling rate : 48.0 KHzCompression mode : LossyStream size : 135 MiB (1%)Title : SDI Media по заказу т/к GulliLanguage : RussianDefault : YesForced : No
Audio #2ID : 3Format : AC-3Format/Info : Audio Coding 3Mode extension : CM (complete main)Format settings, Endianness : BigCodec ID : A_AC3Duration : 1h 24mnBit rate mode : ConstantBit rate : 224 KbpsChannel(s) : 2 channelsChannel positions : Front: L RSampling rate : 48.0 KHzCompression mode : LossyStream size : 135 MiB (1%)Language : RussianDefault : NoForced : No
Audio #3ID : 4Format : DTSFormat/Info : Digital Theater SystemsFormat profile : MA / CoreMode : 16Format settings, Endianness : BigCodec ID : A_DTSDuration : 1h 24mnBit rate mode : VariableBit rate : Unknown / 1 509 KbpsChannel(s) : 6 channelsChannel positions : Front: L C R, Side: L R, LFESampling rate : 48.0 KHzBit depth : 16 bitsCompression mode : Lossless / LossyTitle : OriginalLanguage : DutchDefault : NoForced : No
Menu00:00:00.000 : :01. Die Minihexe00:07:02.840 : :02. Der Waldgeist00:12:34.520 : :03. Der Hexen Hicks00:19:55.640 : :04. Die Hexenschule00:30:30.320 : :05. Ein Ausflug00:37:18.600 : :06. Verhexte Wolken00:44:16.000 : :07. Wind-federn00:52:34.760 : :08. Menschen01:01:23.440 : :09. Hexen Neujahr01:08:11.560 : :10. Sture Menschen01:17:20.680 : :11. Happy End01:20:09.280 : :12. Abspann
Скриншоты
Скачать

Скачать торрент!

Как скачивать? · Что такое торрент? · Рейтинг и ограничения

Сайт не распространяет и не хранит электронные версии произведений, а лишь предоставляет доступ к создаваемому пользователями каталогу ссылок на торрент-файлы, которые содержат только списки хеш-сумм

[Профиль] [ЛС]
Показать сообщения:    
Ответить на тему

Текущее время: Сегодня 06:09

Часовой пояс: GMT + 4



Вы не можете начинать темы
Вы не можете отвечать на сообщения
Вы не можете редактировать свои сообщения
Вы не можете удалять свои сообщения
Вы не можете голосовать в опросах
Вы не можете прикреплять файлы к сообщениям
Вы не можете скачивать файлы