Грязь / Filth (Джон С. Бейрд / Jon S. Baird) [2013, Великобритания, Германия, Швеция, Бельгия, США, драма, комедия, криминал, BDRip 1080p] Dub (R5) + DVO (Ukr) + 2x AVO (Д. Пучков, Ю. Сербин) + Sub Rus, Eng + Original Eng

Ответить на тему
 
Автор Сообщение

user ®

Стаж: 7 лет 7 месяцев

Сообщений: 20008

Пост Пост: #1 от 06-Ноя-2015 01:18

[Цитировать]

Грязь / Filth
Страна: Великобритания, Германия, Швеция, Бельгия, США
Студия: Steel Mill Pictures, Logie Pictures, Altitude Film Entertainment
Жанр: драма, комедия, криминал
Год выпуска: 2013
Продолжительность: 01:37:22
Перевод 1: Профессиональный (дублированный) R5
Перевод 2: Авторский (одноголосый закадровый) Д. Пучков "Гоблин"
Перевод 3: Авторский (одноголосый закадровый) Ю. Сербин
Cубтитры: русские (х2), английские (SDH, SDH-Colored)
Оригинальная аудиодорожка: английский
Режиссер: Джон С. Бейрд / Jon S. Baird
В ролях: Джеймс МакЭвой, Джейми Белл, Эдди Марсан, Джим Бродбент, Имоджен Путс, Шона МакДональд, Ширли Хендерсон, Джон Сессионс, Гари Льюис, Иман Эллиотт
Описание: Главный герой — продажный шотландский полицейский Брюс Робертсон, помешанный на сексе и кокаине. Ему бы надо расследовать убийство, но ему сильно мешают собственные странности, привычка разыгрывать коллег и беготня за девушками. За Робертсоном присматривают его напарник Рэй Леннокс и начальник Боб Тоал.- -Сэмпл: http://sendfile.su/1170096
Тип релиза: BDRip 1080p [HDMaNiAcS]
Контейнер: MKV
Видео: h.264, 1920x816, 24.000 fps, 17500 kbps
Аудио #1: Russian: AC3 5.1, 48 kHz, 384 kbps avg |Дубляж, R5|
Аудио #2: Russian: AC3 5.1, 48 kHz, 384 kbps avg |Одноголосый закадровый, Д. Пучков "Гоблин"|
Аудио #3: Russian: AC3 5.1, 48 kHz, 448 kbps avg |Одноголосый закадровый, Ю. Сербин|
Аудио #4: Ukrainian: AC3 2.0, 48 kHz, 192 kbps avg |Двухголосый закадровый|
Аудио #5: English: DTS 5.1, 48 kHz, 768 kbps avg |Оригинал|
Аудио #6: English: DTS 2.0, 48 kHz, 768 kbps avg |Commentary|
Формат субтитров: softsub (SRT)
MediaInfo
Complete name : E:\Filth.2013.1080p.BluRay.3xRus.Ukr.2xEng.HDCLUB.mkv
Format : Matroska
Format version : Version 4 / Version 2
File size : 13.9 GiB
Duration : 1h 37mn
Overall bit rate : 20.4 Mbps
Encoded date : UTC 2015-09-03 08:43:46
Writing application : mkvmerge v6.9.1 ('Blue Panther') 64bit built on Apr 18 2014 18:23:38
Writing library : libebml v1.3.0 + libmatroska v1.4.1
Video
ID : 1
Format : AVC
Format/Info : Advanced Video Codec
Format profile : High@L4.1
Format settings, CABAC : Yes
Format settings, ReFrames : 12 frames
Codec ID : V_MPEG4/ISO/AVC
Duration : 1h 37mn
Bit rate : 17.5 Mbps
Width : 1 920 pixels
Height : 816 pixels
Display aspect ratio : 2.35:1
Frame rate mode : Constant
Frame rate : 24.000 fps
Color space : YUV
Chroma subsampling : 4:2:0
Bit depth : 8 bits
Scan type : Progressive
Bits/(Pixel*Frame) : 0.465
Stream size : 11.6 GiB (84%)
Writing library : x264 core 138 r2358kMod 9e941d1
Encoding settings : cabac=1 / ref=12 / deblock=1:-3:-3 / analyse=0x3:0x113 / me=tesa / subme=11 / psy=1 / fade_compensate=0.00 / psy_rd=1.05:0.00 / mixed_ref=1 / me_range=32 / chroma_me=1 / trellis=2 / 8x8dct=1 / cqm=0 / deadzone=21,11 / fast_pskip=0 / chroma_qp_offset=-2 / threads=18 / lookahead_threads=3 / sliced_threads=0 / nr=0 / decimate=0 / interlaced=0 / bluray_compat=0 / constrained_intra=0 / bframes=8 / b_pyramid=2 / b_adapt=2 / b_bias=0 / direct=3 / weightb=1 / open_gop=0 / weightp=2 / keyint=250 / keyint_min=24 / scenecut=40 / intra_refresh=0 / rc_lookahead=40 / rc=2pass / mbtree=0 / bitrate=17500 / ratetol=1.0 / qcomp=0.60 / qpmin=10 / qpmax=69 / qpstep=4 / cplxblur=20.0 / qblur=0.5 / vbv_maxrate=40000 / vbv_bufsize=30000 / nal_hrd=none / ip_ratio=1.35 / pb_ratio=1.10 / aq=3:0.60
Default : No
Forced : No
Audio #1
ID : 2
Format : AC-3
Format/Info : Audio Coding 3
Mode extension : CM (complete main)
Format settings, Endianness : Big
Codec ID : A_AC3
Duration : 1h 37mn
Bit rate mode : Constant
Bit rate : 384 Kbps
Channel(s) : 6 channels
Channel positions : Front: L C R, Side: L R, LFE
Sampling rate : 48.0 KHz
Compression mode : Lossy
Stream size : 267 MiB (2%)
Title : DUB, R5
Language : Russian
Default : Yes
Forced : No
Audio #2
ID : 3
Format : AC-3
Format/Info : Audio Coding 3
Mode extension : CM (complete main)
Format settings, Endianness : Big
Codec ID : A_AC3
Duration : 1h 37mn
Bit rate mode : Constant
Bit rate : 384 Kbps
Channel(s) : 6 channels
Channel positions : Front: L C R, Side: L R, LFE
Sampling rate : 48.0 KHz
Compression mode : Lossy
Stream size : 267 MiB (2%)
Title : AVO, Goblin
Language : Russian
Default : No
Forced : No
Audio #3
ID : 4
Format : AC-3
Format/Info : Audio Coding 3
Mode extension : CM (complete main)
Format settings, Endianness : Big
Codec ID : A_AC3
Duration : 1h 37mn
Bit rate mode : Constant
Bit rate : 448 Kbps
Channel(s) : 6 channels
Channel positions : Front: L C R, Side: L R, LFE
Sampling rate : 48.0 KHz
Compression mode : Lossy
Stream size : 312 MiB (2%)
Title : AVO, Serbin
Language : Russian
Default : No
Forced : No
Audio #4
ID : 5
Format : AC-3
Format/Info : Audio Coding 3
Mode extension : CM (complete main)
Format settings, Endianness : Big
Codec ID : A_AC3
Duration : 1h 37mn
Bit rate mode : Constant
Bit rate : 192 Kbps
Channel(s) : 2 channels
Channel positions : Front: L R
Sampling rate : 48.0 KHz
Compression mode : Lossy
Stream size : 134 MiB (1%)
Title : DVO
Language : Ukrainian
Default : No
Forced : No
Audio #5
ID : 6
Format : DTS
Format/Info : Digital Theater Systems
Mode : 16
Format settings, Endianness : Big
Codec ID : A_DTS
Duration : 1h 37mn
Bit rate mode : Constant
Bit rate : 768 Kbps
Channel(s) : 6 channels
Channel positions : Front: L C R, Side: L R, LFE
Sampling rate : 48.0 KHz
Bit depth : 24 bits
Compression mode : Lossy
Stream size : 535 MiB (4%)
Title : Original
Language : English
Default : No
Forced : No
Audio #6
ID : 7
Format : DTS
Format/Info : Digital Theater Systems
Mode : 16
Format settings, Endianness : Big
Codec ID : A_DTS
Duration : 1h 37mn
Bit rate mode : Constant
Bit rate : 768 Kbps
Channel(s) : 2 channels
Channel positions : Front: L R
Sampling rate : 48.0 KHz
Bit depth : 24 bits
Compression mode : Lossy
Stream size : 535 MiB (4%)
Title : Commentary
Language : English
Default : No
Forced : No
Text #1
ID : 8
Format : UTF-8
Codec ID : S_TEXT/UTF8
Codec ID/Info : UTF-8 Plain Text
Title : #1
Language : Russian
Default : No
Forced : No
Text #2
ID : 9
Format : UTF-8
Codec ID : S_TEXT/UTF8
Codec ID/Info : UTF-8 Plain Text
Title : #2
Language : Russian
Default : No
Forced : No
Text #3
ID : 10
Format : UTF-8
Codec ID : S_TEXT/UTF8
Codec ID/Info : UTF-8 Plain Text
Title : SDH
Language : English
Default : No
Forced : No
Text #4
ID : 11
Format : UTF-8
Codec ID : S_TEXT/UTF8
Codec ID/Info : UTF-8 Plain Text
Title : SDH-Colored
Language : English
Default : No
Forced : No
Menu
00:00:00.000 : en:00:00:00.000
00:08:15.500 : en:00:08:15.500
00:15:56.792 : en:00:15:56.792
00:24:38.667 : en:00:24:38.667
00:32:36.125 : en:00:32:36.125
00:40:55.917 : en:00:40:55.917
00:48:00.458 : en:00:48:00.458
00:56:09.000 : en:00:56:09.000
01:03:43.833 : en:01:03:43.833
01:14:07.708 : en:01:14:07.708
01:19:14.958 : en:01:19:14.958
01:28:19.167 : en:01:28:19.167
Source vs Encode Скриншоты
Скачать

Скачать торрент!

Как скачивать? · Что такое торрент? · Рейтинг и ограничения

Сайт не распространяет и не хранит электронные версии произведений, а лишь предоставляет доступ к создаваемому пользователями каталогу ссылок на торрент-файлы, которые содержат только списки хеш-сумм

[Профиль] [ЛС]
Показать сообщения:    
Ответить на тему

Текущее время: Сегодня 22:35

Часовой пояс: GMT + 4



Вы не можете начинать темы
Вы не можете отвечать на сообщения
Вы не можете редактировать свои сообщения
Вы не можете удалять свои сообщения
Вы не можете голосовать в опросах
Вы не можете прикреплять файлы к сообщениям
Вы не можете скачивать файлы