В упор / At Close Range (Джеймс Фоули / James Foley) [1986, США, драма, криминал, BDRemux 1080p] MVO (R5) + DVO (НТВ+) + AVO (Ю.Сербин) + Sub Eng + Original Eng

Ответить на тему
 
Автор Сообщение

user ®

Стаж: 7 лет 7 месяцев

Сообщений: 20008

Пост Пост: #1 от 06-Ноя-2015 01:18

[Цитировать]

В упор / At Close Range
-Страна: США
Студия: Hemdale Film
Жанр: драма, криминал
Год выпуска: 1986
Продолжительность: 01:55:45-Перевод 1: Профессиональный (многоголосый закадровый) R5
Перевод 2: Профессиональный (двухголосый закадровый) НТВ+
Перевод 3: Авторский (одноголосый закадровый) Ю.Сербин
Cубтитры: английские
Оригинальная аудиодорожка: английский-Режиссер: Джеймс Фоули / James Foley-В ролях: Шон Пенн, Кристофер Уокен, Мэри Стюарт Мастерсон, Крис Пенн, Милли Перкинс, Айлин Райан, Трейси Уолтер, Р.Д. Колл, Дэвид Стрэтэйрн, Дж. К. Куин-Описание: Отец-преступник вовлекает своего сына в безумную вакханалию жестоких преступлений и убийств. За ними охотятся полиция и ФБР, весь мир против них, и вскоре они сами становятся смертельными врагами. Кто из них останется в живых? Будет ли ему нужна эта жизнь?... Фильм основан на реальном случае, происшедшем в штате Пенсильвания в 1978 году.-Доп. информация: за диск спасибо HD TRACKER-Сэмпл | Kinopoisk | Imdb-Тип релиза: BDRemux 1080p
Контейнер: MKV-Видео: AVC High@L4.1 | 1920x1080 [16:9] | 29975 kbps | 23.976 fps
Аудио 1: Russian AC-3 | 2 ch | 48.0 KHz | 192 kbps [Многоголосый R5]
Аудио 2: Russian AC-3 | 2 ch | 48.0 KHz | 192 kbps Kbps [Двухголосый НТВ+]
Аудио 3: Russian AC-3 | 2 ch | 48.0 KHz | 192 kbps Kbps [Авторский Ю.Сербин]
Аудио 4: English DTS-HD MA | 2 ch | 48.0 KHz | 2083 kbps | 24-bit (DTS Core: 2.0 / 48 kHz / 1509 kbps / 24-bit) [Original]
Аудио 5: English DTS-HD MA | 2 ch | 48.0 KHz | 1996 kbps | 24-bit (DTS Core: 2.0 / 48 kHz / 1509 kbps / 24-bit) [Comments]
MediaInfo
General
Unique ID : 186813319684505538284954182742477915568 (0x8C8AEFC7941DDFB7A71CDC0FE06445B0)
Complete name : I:\V.upor.1986.BDRemux.1080p.mkv
Format : Matroska
Format version : Version 4 / Version 2
File size : 27.9 GiB
Duration : 1h 55mn
Overall bit rate mode : Variable
Overall bit rate : 34.5 Mbps
Encoded date : UTC 2015-11-01 19:51:27
Writing application : mkvmerge v8.5.0 ('Vanishing Act') 32bit
Writing library : libebml v1.3.1 + libmatroska v1.4.2
DURATION : 01:51:47.617000000
NUMBER_OF_FRAMES : 1391
NUMBER_OF_BYTES : 35086
_STATISTICS_WRITING_APP : mkvmerge v8.5.0 ('Vanishing Act') 32bit
_STATISTICS_WRITING_DATE_UTC : 2015-11-01 19:51:27
_STATISTICS_TAGS : BPS DURATION NUMBER_OF_FRAMES NUMBER_OF_BYTES
Video
ID : 1
Format : AVC
Format/Info : Advanced Video Codec
Format profile : High@L4.1
Format settings, CABAC : Yes
Format settings, ReFrames : 4 frames
Codec ID : V_MPEG4/ISO/AVC
Duration : 1h 55mn
Bit rate mode : Variable
Maximum bit rate : 35.0 Mbps
Width : 1 920 pixels
Height : 1 080 pixels
Display aspect ratio : 16:9
Frame rate mode : Constant
Frame rate : 23.976 fps
Color space : YUV
Chroma subsampling : 4:2:0
Bit depth : 8 bits
Scan type : Progressive
Language : English
Default : Yes
Forced : No
Audio #1
ID : 2
Format : AC-3
Format/Info : Audio Coding 3
Mode extension : CM (complete main)
Format settings, Endianness : Big
Codec ID : A_AC3
Duration : 1h 55mn
Bit rate mode : Constant
Bit rate : 192 Kbps
Channel(s) : 2 channels
Channel positions : Front: L R
Sampling rate : 48.0 KHz
Compression mode : Lossy
Stream size : 159 MiB (1%)
Title : Многоголосый R5
Language : Russian
Default : Yes
Forced : No
Audio #2
ID : 3
Format : AC-3
Format/Info : Audio Coding 3
Mode extension : CM (complete main)
Format settings, Endianness : Big
Codec ID : A_AC3
Duration : 1h 55mn
Bit rate mode : Constant
Bit rate : 192 Kbps
Channel(s) : 2 channels
Channel positions : Front: L R
Sampling rate : 48.0 KHz
Compression mode : Lossy
Stream size : 159 MiB (1%)
Title : Двухголосый НТВ+
Language : Russian
Default : No
Forced : No
Audio #3
ID : 4
Format : AC-3
Format/Info : Audio Coding 3
Mode extension : CM (complete main)
Format settings, Endianness : Big
Codec ID : A_AC3
Duration : 1h 55mn
Bit rate mode : Constant
Bit rate : 192 Kbps
Channel(s) : 2 channels
Channel positions : Front: L R
Sampling rate : 48.0 KHz
Compression mode : Lossy
Stream size : 159 MiB (1%)
Title : Ю.Сербин
Language : Russian
Default : No
Forced : No
Audio #4
ID : 5
Format : DTS
Format/Info : Digital Theater Systems
Format profile : MA / Core
Mode : 16
Format settings, Endianness : Big
Codec ID : A_DTS
Duration : 1h 55mn
Bit rate mode : Variable
Bit rate : Unknown / 1 509 Kbps
Channel(s) : 2 channels
Channel positions : Front: L R
Sampling rate : 48.0 KHz
Bit depth : 24 bits
Compression mode : Lossless / Lossy
Title : Original
Language : English
Default : No
Forced : No
Audio #5
ID : 6
Format : DTS
Format/Info : Digital Theater Systems
Format profile : MA / Core
Mode : 16
Format settings, Endianness : Big
Codec ID : A_DTS
Duration : 1h 55mn
Bit rate mode : Variable
Bit rate : Unknown / 1 509 Kbps
Channel(s) : 2 channels
Channel positions : Front: L R
Sampling rate : 48.0 KHz
Bit depth : 24 bits
Compression mode : Lossless / Lossy
Title : Comments
Language : English
Default : No
Forced : No
Text
ID : 7
Format : UTF-8
Codec ID : S_TEXT/UTF8
Codec ID/Info : UTF-8 Plain Text
Title : английский
Language : English
Default : No
Forced : No
Menu
00:00:00.000 : :Chapter 01
00:05:06.889 : :Chapter 02
00:11:17.051 : :Chapter 03
00:14:20.734 : :Chapter 04
00:19:57.404 : :Chapter 05
00:23:25.237 : :Chapter 06
00:29:43.656 : :Chapter 07
00:33:49.402 : :Chapter 08
00:37:32.124 : :Chapter 09
00:42:12.780 : :Chapter 10
00:49:30.425 : :Chapter 11
00:54:50.203 : :Chapter 12
00:58:27.253 : :Chapter 13
01:03:16.042 : :Chapter 14
01:09:55.774 : :Chapter 15
01:12:18.500 : :Chapter 16
01:16:37.718 : :Chapter 17
01:19:55.040 : :Chapter 18
01:27:21.319 : :Chapter 19
01:31:40.244 : :Chapter 20
01:36:52.640 : :Chapter 21
01:41:02.806 : :Chapter 22
01:46:13.033 : :Chapter 23
01:50:55.398 : :Chapter 24
01:55:45.772 : :Chapter 25
Скриншоты
Скачать

Скачать торрент!

Как скачивать? · Что такое торрент? · Рейтинг и ограничения

Сайт не распространяет и не хранит электронные версии произведений, а лишь предоставляет доступ к создаваемому пользователями каталогу ссылок на торрент-файлы, которые содержат только списки хеш-сумм

[Профиль] [ЛС]
Показать сообщения:    
Ответить на тему

Текущее время: Сегодня 20:31

Часовой пояс: GMT + 4



Вы не можете начинать темы
Вы не можете отвечать на сообщения
Вы не можете редактировать свои сообщения
Вы не можете удалять свои сообщения
Вы не можете голосовать в опросах
Вы не можете прикреплять файлы к сообщениям
Вы не можете скачивать файлы