Бестселлер / Best Seller (Джон Флинн / John Flynn) [1987, США, триллер, BDRemux 1080p] MVO (Питер ТВ5) + DVO (НТВ+) + VO + Sub Eng + Original Eng

Ответить на тему
 
Автор Сообщение

user ®

Стаж: 7 лет 7 месяцев

Сообщений: 20008

Пост Пост: #1 от 06-Ноя-2015 01:18

[Цитировать]

Бестселлер / Best Seller
-Страна: США
Студия: Orion, Hemdale Film Corporation
Жанр: Триллер
Год выпуска: 1987
Продолжительность: 01:32:59-Перевод 1: Профессиональный (многоголосый закадровый) Питер ТВ5
Перевод 2: Профессиональный (двухголосый закадровый) НТВ+
Перевод 3: Одноголосый закадровый
Cубтитры: английские
Оригинальная аудиодорожка: английский-Режиссер: Джон Флинн / John Flynn-В ролях: Джеймс Вудс, Брайан Деннехи, Виктория Теннант, Эллисон Бэлсон, Пол Шенар, Джордж Коу, Энн Питоняк, Мэри Карвер, Салли Бойар, Кэтлин Ллойд, Чарльз Тайнер, Э. Брайан Дин, Джеффри Джозефсон, Эдвард Блэкофф, Брэнском Ричмонд, Дж.П. Бамстед, Уильям Брондер, Дженни Гэго, Майкл Крэбтри, Клер Филдс, Дэвид Бирд, Тед Маркленд, Фил Хувер, Дэвид Блэквуд, Дэвид Эрсин, Джей Ингрэм, Дэниэл Трент, Гари Кирк, Дин Эбстон, Дэвид С. Касс ст., Билл Р. Митчел, Джон Ховард Суэйн, Дэннис Акри, Марк Вентурини, Ларри Холт, Джефф Рэмси, Джеймс Уинберн, Хэнк Стоун, Майкл Уайт, Мартин Уэст, Уолли Барр, Арлин Миллер, Сэндс Холл, Сэм Бальдони, Сеймур Кэссел, Сидни Уршан-Описание: Деннис - полицейский, получивший известность как автор детективных романов. Клив - профессиональный убийца, преступления которого помогли его боссу создать целую финансовую империю. Клив подозревает, что босс распорядился его убить, и для того, чтобы выжить и отомстить, готов раскрыть все подробности совершенных им преступлений писателю - полицейскому. Деннису этот материал позволит создать новый бестселлер. Но когда работа над книгой близится к завершению, начинают погибать свидетели...-Материал предоставлен: -Сэмпл | Imdb | Kinopoisk-Тип релиза: BDRemux 1080p
Контейнер: MKV-Видео: AVC High@L4.1 | 1920x1080 [16:9] | 27796 kbps | 23.976 fps
Аудио 1: Russian AC-3 | 2 ch | 48.0 KHz | 192 kbps [Питер ТВ5]
Аудио 2: Russian AC-3 | 2 ch | 48.0 KHz | 192 kbps [НТВ+]
Аудио 3: Russian AC-3 | 2 ch | 48.0 KHz | 192 kbps [VO]
Аудио 4: English DTS-HD MA | 2 ch | 48.0 KHz | 2023 kbps | 24-bit (DTS Core: 2.0 / 48 kHz / 1509 kbps / 24-bit) [Original]
MediaInfo
General
Unique ID : 236863183405440900625067294040981943354 (0xB2323094655CBE6F96FDC082B5DEB43A)
Complete name : I:\Best Seller.1987.BDRemux.mkv
Format : Matroska
Format version : Version 4 / Version 2
File size : 20.3 GiB
Duration : 1h 35mn
Overall bit rate mode : Variable
Overall bit rate : 30.4 Mbps
Encoded date : UTC 2015-11-02 02:44:27
Writing application : mkvmerge v8.5.0 ('Vanishing Act') 32bit
Writing library : libebml v1.3.1 + libmatroska v1.4.2
DURATION : 01:32:59.200000000
NUMBER_OF_FRAMES : 878
NUMBER_OF_BYTES : 36338
_STATISTICS_WRITING_APP : mkvmerge v8.5.0 ('Vanishing Act') 32bit
_STATISTICS_WRITING_DATE_UTC : 2015-11-02 02:44:27
_STATISTICS_TAGS : BPS DURATION NUMBER_OF_FRAMES NUMBER_OF_BYTES
Video
ID : 1
Format : AVC
Format/Info : Advanced Video Codec
Format profile : High@L4.1
Format settings, CABAC : Yes
Format settings, ReFrames : 4 frames
Codec ID : V_MPEG4/ISO/AVC
Duration : 1h 35mn
Bit rate mode : Variable
Maximum bit rate : 38.0 Mbps
Width : 1 920 pixels
Height : 1 080 pixels
Display aspect ratio : 16:9
Frame rate mode : Constant
Frame rate : 23.976 fps
Color space : YUV
Chroma subsampling : 4:2:0
Bit depth : 8 bits
Scan type : Progressive
Language : English
Default : Yes
Forced : No
Audio #1
ID : 2
Format : AC-3
Format/Info : Audio Coding 3
Mode extension : CM (complete main)
Format settings, Endianness : Big
Codec ID : A_AC3
Duration : 1h 35mn
Bit rate mode : Constant
Bit rate : 192 Kbps
Channel(s) : 2 channels
Channel positions : Front: L R
Sampling rate : 48.0 KHz
Compression mode : Lossy
Stream size : 131 MiB (1%)
Title : Питер ТВ5
Language : Russian
Default : Yes
Forced : No
Audio #2
ID : 3
Format : AC-3
Format/Info : Audio Coding 3
Mode extension : CM (complete main)
Format settings, Endianness : Big
Codec ID : A_AC3
Duration : 1h 35mn
Bit rate mode : Constant
Bit rate : 192 Kbps
Channel(s) : 2 channels
Channel positions : Front: L R
Sampling rate : 48.0 KHz
Compression mode : Lossy
Stream size : 131 MiB (1%)
Title : НТВ+
Language : Russian
Default : No
Forced : No
Audio #3
ID : 4
Format : AC-3
Format/Info : Audio Coding 3
Mode extension : CM (complete main)
Format settings, Endianness : Big
Codec ID : A_AC3
Duration : 1h 35mn
Bit rate mode : Constant
Bit rate : 192 Kbps
Channel(s) : 2 channels
Channel positions : Front: L R
Sampling rate : 48.0 KHz
Compression mode : Lossy
Stream size : 131 MiB (1%)
Title : Одноголосый закадровый
Language : Russian
Default : No
Forced : No
Audio #4
ID : 5
Format : DTS
Format/Info : Digital Theater Systems
Format profile : MA / Core
Mode : 16
Format settings, Endianness : Big
Codec ID : A_DTS
Duration : 1h 35mn
Bit rate mode : Variable
Bit rate : Unknown / 1 509 Kbps
Channel(s) : 2 channels
Channel positions : Front: L R
Sampling rate : 48.0 KHz
Bit depth : 24 bits
Compression mode : Lossless / Lossy
Title : Original
Language : English
Default : No
Forced : No
Text
ID : 6
Format : UTF-8
Codec ID : S_TEXT/UTF8
Codec ID/Info : UTF-8 Plain Text
Language : English
Default : Yes
Forced : No
Скриншоты
Скачать

Скачать торрент!

Как скачивать? · Что такое торрент? · Рейтинг и ограничения

Сайт не распространяет и не хранит электронные версии произведений, а лишь предоставляет доступ к создаваемому пользователями каталогу ссылок на торрент-файлы, которые содержат только списки хеш-сумм

[Профиль] [ЛС]
Показать сообщения:    
Ответить на тему

Текущее время: Сегодня 05:52

Часовой пояс: GMT + 4



Вы не можете начинать темы
Вы не можете отвечать на сообщения
Вы не можете редактировать свои сообщения
Вы не можете удалять свои сообщения
Вы не можете голосовать в опросах
Вы не можете прикреплять файлы к сообщениям
Вы не можете скачивать файлы