Агенты А.Н.К.Л. / The Man from U.N.C.L.E. (Гай Ричи / Guy Ritchie) [2015, США, Великобритания, боевик, комедия, приключения, WEB-DL 720p] Dub (iTunes) + VO (Матвеев) + Original Eng + Sub (Rus, Eng)

Ответить на тему
 
Автор Сообщение

user ®

Стаж: 7 лет 7 месяцев

Сообщений: 20008

Пост Пост: #1 от 06-Ноя-2015 01:18

[Цитировать]

Агенты А.Н.К.Л. / The Man from U.N.C.L.E.«Герои высшего класса»______________________________________________________________________________________Страна: США, Великобритания
Студия: Warner Bros., RatPac-Dune Entertainment, Wigram Productions
Жанр: боевик, комедия, приключения
Год выпуска: 2015
Продолжительность: 01:56:26
Перевод 1: Профессиональный (дублированный) | iTunes Russia
Перевод 2: Одноголосый закадровый | А. Матвеев aka Doctor Joker
Оригинальная аудиодорожка: английский
Cубтитры: русские, английские
Режиссер: Гай Ричи / Guy Ritchie
В ролях: Генри Кавилл, Арми Хаммер, Алисия Викандер, Элизабет Дебики, Хью Грант, Лука Кальвани, Сильвестр Грот, Джаред Харрис, Кристиан Беркель, Миша Кузнецов, Гай Уильямс, Марианна Ди Мартино
Описание: Наполеон Соло - агент ЦРУ, на счету которого огромное количество успешно проведенных операций. Он считается одним из лучших секретных агентов во всем мире, и с ним может сравниться только один человек - самый молодой и перспективный агент КГБ, Илья Курякин. Их противостояние переросло в настоящую войну, в которой никто не собирается уступать. Однако обстоятельства складываются так, что непримиримые враги вынуждены стать напарниками. Это происходит после того как спецслужбы двух стран обнаруживают международную преступную организацию, которой удалось создать ядерную бомбу...______________________________________________________________________________________
Тип релиза: WEB-DL 720p
Контейнер: MKV
Видео: 1280x530 at 23.976 fps, MPEG-4 AVC, 3956 kbps avg
Аудио 1: Russian: 48 kHz, AC3, 3/2 (L,C,R,l,r) + LFE ch, ~384.00 kbps avg |Дубляж, iTunes Russia|
Аудио 2: Russian: 48 kHz, AC3, 3/2 (L,C,R,l,r) + LFE ch, ~384.00 kbps avg |Одноголосый, А. Матвеев aka Doctor Joker|
Аудио 3: English: 48 kHz, AC3, 3/2 (L,C,R,l,r) + LFE ch, ~384.00 kbps avg
Cубтитры: Russian (forced, full), English (full)
MediaInfo
General
Unique ID : 234732894596930545973681596396178309478 (0xB097E93B785A4A0C99EC71B44E190166)
Complete name : D:\The.Man.from.U.N.C.L.E.2015.720p.WEB-DL.2xRus.Eng.mkv
Format : Matroska
Format version : Version 4 / Version 2
File size : 4.24 GiB
Duration : 1h 56mn
Overall bit rate : 5 212 Kbps
Movie name : Агенты А.Н.К.Л. / The Man from U.N.C.L.E. (2015)
Encoded date : UTC 2015-11-03 06:45:24
Writing application : mkvmerge v8.3.0 ('Over the Horizon') 64bit
Writing library : libebml v1.3.1 + libmatroska v1.4.2
Attachements : cover.jpg
DURATION : 01:50:29.339000000
NUMBER_OF_FRAMES : 115
NUMBER_OF_BYTES : 6946
_STATISTICS_WRITING_APP : mkvmerge v8.3.0 ('Over the Horizon') 64bit
_STATISTICS_WRITING_DATE_UT : 2015-11-03 06:45:24
_STATISTICS_TAGS : BPS DURATION NUMBER_OF_FRAMES NUMBER_OF_BYTES
Video
ID : 1
Format : AVC
Format/Info : Advanced Video Codec
Format profile : Main@L3.1
Format settings, CABAC : No
Format settings, ReFrames : 2 frames
Codec ID : V_MPEG4/ISO/AVC
Duration : 1h 56mn
Bit rate : 3 956 Kbps
Width : 1 280 pixels
Height : 530 pixels
Display aspect ratio : 2.40:1
Frame rate mode : Constant
Frame rate : 23.976 fps
Color space : YUV
Chroma subsampling : 4:2:0
Bit depth : 8 bits
Scan type : Progressive
Bits/(Pixel*Frame) : 0.243
Stream size : 3.22 GiB (76%)
Title : Агенты А.Н.К.Л. / The Man from U.N.C.L.E. (2015) WEB-DL 720p | iTunes
Language : English
Default : Yes
Forced : No
Color range : Limited
Color primaries : BT.709
Transfer characteristics : BT.709
Matrix coefficients : BT.709
Audio #1
ID : 2
Format : AC-3
Format/Info : Audio Coding 3
Mode extension : CM (complete main)
Format settings, Endianness : Big
Codec ID : A_AC3
Duration : 1h 56mn
Bit rate mode : Constant
Bit rate : 384 Kbps
Channel(s) : 6 channels
Channel positions : Front: L C R, Side: L R, LFE
Sampling rate : 48.0 KHz
Compression mode : Lossy
Stream size : 320 MiB (7%)
Title : Дубляж, iTunes Russia
Language : Russian
Default : Yes
Forced : No
Audio #2
ID : 3
Format : AC-3
Format/Info : Audio Coding 3
Mode extension : CM (complete main)
Format settings, Endianness : Big
Codec ID : A_AC3
Duration : 1h 56mn
Bit rate mode : Constant
Bit rate : 384 Kbps
Channel(s) : 6 channels
Channel positions : Front: L C R, Side: L R, LFE
Sampling rate : 48.0 KHz
Compression mode : Lossy
Stream size : 320 MiB (7%)
Title : AVO, А. Матвеев aka Doctor Joker
Language : Russian
Default : No
Forced : No
Audio #3
ID : 4
Format : AC-3
Format/Info : Audio Coding 3
Mode extension : CM (complete main)
Format settings, Endianness : Big
Codec ID : A_AC3
Duration : 1h 56mn
Bit rate mode : Constant
Bit rate : 384 Kbps
Channel(s) : 6 channels
Channel positions : Front: L C R, Side: L R, LFE
Sampling rate : 48.0 KHz
Compression mode : Lossy
Stream size : 320 MiB (7%)
Language : English
Default : No
Forced : No
Text #1
ID : 5
Format : UTF-8
Codec ID : S_TEXT/UTF8
Codec ID/Info : UTF-8 Plain Text
Title : Forced, iTunes
Language : Russian
Default : Yes
Forced : No
Text #2
ID : 6
Format : UTF-8
Codec ID : S_TEXT/UTF8
Codec ID/Info : UTF-8 Plain Text
Title : Full, iTunes
Language : Russian
Default : No
Forced : No
Text #3
ID : 7
Format : UTF-8
Codec ID : S_TEXT/UTF8
Codec ID/Info : UTF-8 Plain Text
Title : Full
Language : English
Default : No
Forced : No
Menu
00:00:00.000 : en:1
00:15:18.000 : en:2
00:23:10.000 : en:3
00:32:08.000 : en:4
00:40:34.000 : en:5
00:49:06.000 : en:6
00:59:22.000 : en:7
01:08:51.000 : en:8
01:20:27.000 : en:9
01:29:46.000 : en:10
01:43:20.000 : en:11
01:49:22.000 : en:12
Скриншоты Знаете ли вы, что...
• Генри Кавилл, который сыграл Наполеона Соло в этом фильме, также сыграл супермена в фильме «Человек из стали» (2013). Актер Роберт Вон, который сыграл Наполеона Соло в оригинальном сериале «Агенты А. Н. К. Л.» (1964-1968), сыграл злодея в фильме «Супермен 3» (1983).
• Более десяти лет понадобилось студии Warner Bros., чтобы снять этот фильм.
• «U.N.C.L.E.» расшифровывается как «United Network Command for Law and Enforcement».
• Первоначально, главную роль планировал исполнить Джордж Клуни, однако он выбыл из-за проблем со здоровьем.
• Джозеф Гордон-Левитт, Райан Гослинг, Александр Скарсгард, Юэн МакГрегор, Роберт Паттинсон, Мэтт Дэймон, Кристиан Бэйл, Майкл Фассбендер, Брэдли Купер, Леонардо Ди Каприо, Юэль Киннаман, Рассел Кроу, Крис Пайн, Райан Рейнольдс и Джон Хэмм значились в кандидатах на главную роль.
• Джемма Артертон, Элис Ив, Мия Васиковска, Эмилия Кларк, Фелисити Джонс, Тереза Палмер и Сара Гадон прослушивались на роль, которую получила Алисия Викандер.
• Том Круз был приглашен на роль Наполеона Соло, однако он решил сосредоточиться на фильме «Миссия невыполнима 5». Генри Кавилл, который изначально должен был исполнить другую роль, заменил Тома.
• Джоэл Эдгертон и Генри Кавилл пробовались на роль, которая досталась Арми Хаммеру. Генри Кавилл впоследствии получил другую роль.
• Большинство трюков Генри Кавилл и Арми Хаммер выполнили самостоятельно.
• Стивен Содерберг изначально собирался занять место режиссера, но покинул проект из-за разногласий со студией касательно бюджета и подбора актеров.
• В фильме Илья Курякин использует модифицированный пистолет «Walther p38». Это отсылка к «Walther p38» из оригинального сериала «Агенты А. Н. К. Л.» (1964-1968). Более того, этот пистолет абсолютно идентичен тому, который японцы использовали в начале 1980-х годов при создании игрушки «Microman», которая трансформировалась из пистолета в робота. Позже дизайн этой игрушки был куплен американской компанией «Hasbro», которая стала продавать эту игрушку уже как трансформера Мегатрона (G1) из мультсериала «Трансформеры» (1984-1987).
• События фильма разворачиваются через год или два после кубинского ракетного кризиса. Это оригинальная история, которая не рассказывалась в сериале «Агенты А. Н. К. Л.» (1964-1968).
• Некоторые из костюмов, использованных в фильме, на самом деле являются винтажной одеждой.
• Источником вдохновения для Гая Ричи стал фильм «Буч Кэссиди и Сандэнс Кид» (1969).
• Съемки фильма проходили в самом длинном звуковом киносъемочном павильоне в Лондоне.
• Все сцены с участием Хью Гранта были отсняты за три недели.
Ошибки в фильме
• Илья надевает Габи кольцо на левую руку, а невеста советского архитектора никак не может носить обручальное кольцо на этой руке.
• На приеме Виктории Винчигуэрры Наполеон при «случайном» объятии снимает с нее толстую золотую цепь, как показано во флэшбэке в их разговоре. Однако чуть ранее в фильме видно, что после объятия цепь еще оставалась на Виктории.
Скачать

Скачать торрент!

Как скачивать? · Что такое торрент? · Рейтинг и ограничения

Сайт не распространяет и не хранит электронные версии произведений, а лишь предоставляет доступ к создаваемому пользователями каталогу ссылок на торрент-файлы, которые содержат только списки хеш-сумм

[Профиль] [ЛС]
Показать сообщения:    
Ответить на тему

Текущее время: Сегодня 19:35

Часовой пояс: GMT + 4



Вы не можете начинать темы
Вы не можете отвечать на сообщения
Вы не можете редактировать свои сообщения
Вы не можете удалять свои сообщения
Вы не можете голосовать в опросах
Вы не можете прикреплять файлы к сообщениям
Вы не можете скачивать файлы