Гонщики / Roadracers (Роберт Родригес / Robert Rodriguez) [1994, США, боевик, драма, BDRip 1080p] DVO + AVO (Андрей Гаврилов) + VO (Чадов) + Sub Rus + Original Eng

Ответить на тему
 
Автор Сообщение

user ®

Стаж: 7 лет 7 месяцев

Сообщений: 20008

Пост Пост: #1 от 06-Ноя-2015 01:18

[Цитировать]

Гонщики / Roadracers Страна: США
Жанр: боевик, драма
Год выпуска: 1994
Продолжительность: 01:33:29
Перевод: Профессиональный (двухголосый закадровый)
Перевод 2: Авторский (одноголосый закадровый) Андрей Гаврилов
Перевод 3: Одноголосый закадровый - Михаил Чадов
Cубтитры: русские
Оригинальная аудиодорожка: английский
Режиссер: Роберт Родригес / Robert Rodriguez
В ролях: Дэвид Аркетт, Сальма Хайек, Джон Хоукс, Джейсон Уайлс, Уильям Сэдлер, ОНил Комптон
Описание: Крутой парень Дьюд, поклонник рок-н-ролла и безумный гонщик, влюбляется в красавицу Донну. Их преследует банда местных хулиганов на крутых автомобилях во главе с жестоким Тэдом.
Постоянные гонки по улицам города и разборки в ресторанах вызывают недовольство шерифа полиции. Соперничество между Тэдом и Дьюдом перерастает в открытую вражду и приводит к кровавой бойне.
Сэмпл: http://multi-up.com/1074094
Тип релиза: BDRip 1080p
Контейнер: MKV
Видео: H264 / 12600 kbps / 1080p / 23,976 fps / High Profile 4.1
Аудио 1: русский, 48 kHz, AC3, 2 ch, 192 kbps avg, [Профессиональный двухголосый]
Аудио 2: русский, 48 kHz, AC3, 2 ch, 192 kbps avg, [Авторский, Андрей Гаврилов]
Аудио 3: русский, 48 kHz, AC3, 6 ch, 448 kbps avg, [Михаил Чадов]
Аудио 4: английский, 48 kHz, DTS, 6 ch, 1509 kbps avg, [Оригинал]
Формат субтитров: softsub (SRT)
MediaInfo
General
Unique ID : 188858351484349964838064720755016335425 (0x8E14CBA1C4939B7A86F452EC2D300041)
Format : Matroska
Format version : Version 4 / Version 2
File size : 9.94 GiB
Duration : 1h 33mn
Overall bit rate : 15.2 Mbps
Movie name : Гонщики / Roadracers / 1994 / BDRip
Encoded date : UTC 2013-10-22 12:46:00
Writing application : mkvmerge v6.4.1 ('Omega Point') built on Sep 16 2013 22:05:10
Writing library : libebml v1.3.0 + libmatroska v1.4.1
Video #1
ID : 1
Format : AVC
Format/Info : Advanced Video Codec
Format profile : High@L4.1
Format settings, CABAC : Yes
Format settings, ReFrames : 4 frames
Codec ID : V_MPEG4/ISO/AVC
Duration : 1h 33mn
Bit rate : 12.6 Mbps
Width : 1 920 pixels
Height : 1 080 pixels
Display aspect ratio : 16:9
Frame rate mode : Constant
Frame rate : 23.976 fps
Color space : YUV
Chroma subsampling : 4:2:0
Bit depth : 8 bits
Scan type : Progressive
Bits/(Pixel*Frame) : 0.253
Stream size : 8.22 GiB (83%)
Writing library : x264 core 133 r2334 a3ac64b
Encoding settings : cabac=1 / ref=4 / deblock=1:-1:-1 / analyse=0x3:0x113 / me=umh / subme=10 / psy=1 / psy_rd=1.00:0.15 / mixed_ref=1 / me_range=24 / chroma_me=1 / trellis=2 / 8x8dct=1 / cqm=0 / deadzone=21,11 / fast_pskip=0 / chroma_qp_offset=-3 / threads=6 / lookahead_threads=1 / sliced_threads=0 / nr=0 / decimate=1 / interlaced=0 / bluray_compat=0 / constrained_intra=0 / bframes=9 / b_pyramid=2 / b_adapt=2 / b_bias=0 / direct=1 / weightb=1 / open_gop=0 / weightp=2 / keyint=230 / keyint_min=23 / scenecut=40 / intra_refresh=0 / rc_lookahead=40 / rc=crf / mbtree=0 / crf=20.3 / qcomp=0.60 / qpmin=0 / qpmax=69 / qpstep=4 / vbv_maxrate=50000 / vbv_bufsize=62500 / crf_max=0.0 / nal_hrd=none / ip_ratio=1.40 / pb_ratio=1.30 / aq=1:1.00
Language : English
Default : Yes
Forced : No
Audio #2
ID : 2
Format : AC-3
Format/Info : Audio Coding 3
Mode extension : CM (complete main)
Format settings, Endianness : Big
Codec ID : A_AC3
Duration : 1h 33mn
Bit rate mode : Constant
Bit rate : 192 Kbps
Channel(s) : 2 channels
Channel positions : Front: L R
Sampling rate : 48.0 KHz
Bit depth : 16 bits
Compression mode : Lossy
Stream size : 128 MiB (1%)
Title : DVO
Language : Russian
Default : Yes
Forced : No
Audio #3
ID : 3
Format : AC-3
Format/Info : Audio Coding 3
Mode extension : CM (complete main)
Format settings, Endianness : Big
Codec ID : A_AC3
Duration : 1h 33mn
Bit rate mode : Constant
Bit rate : 192 Kbps
Channel(s) : 2 channels
Channel positions : Front: L R
Sampling rate : 48.0 KHz
Bit depth : 16 bits
Compression mode : Lossy
Stream size : 128 MiB (1%)
Title : AVO (Андрей Гаврилов)
Language : Russian
Default : No
Forced : No
Audio #4
ID : 4
Format : AC-3
Format/Info : Audio Coding 3
Mode extension : CM (complete main)
Format settings, Endianness : Big
Codec ID : A_AC3
Duration : 1h 33mn
Bit rate mode : Constant
Bit rate : 448 Kbps
Channel(s) : 6 channels
Channel positions : Front: L C R, Side: L R, LFE
Sampling rate : 48.0 KHz
Bit depth : 16 bits
Compression mode : Lossy
Stream size : 300 MiB (3%)
Title : AVO (Михаил Чадов)
Language : Russian
Default : No
Forced : No
Audio #5
ID : 5
Format : DTS
Format/Info : Digital Theater Systems
Mode : 16
Format settings, Endianness : Big
Codec ID : A_DTS
Duration : 1h 33mn
Bit rate mode : Constant
Bit rate : 1 509 Kbps
Channel(s) : 6 channels
Channel positions : Front: L C R, Side: L R, LFE
Sampling rate : 48.0 KHz
Bit depth : 24 bits
Compression mode : Lossy
Stream size : 1 009 MiB (10%)
Title : Original
Language : English
Default : No
Forced : No
Text #6
ID : 6
Format : UTF-8
Codec ID : S_TEXT/UTF8
Codec ID/Info : UTF-8 Plain Text
Title : русский
Language : Russian
Default : No
Forced : No
Скриншоты
Скачать

Скачать торрент!

Как скачивать? · Что такое торрент? · Рейтинг и ограничения

Сайт не распространяет и не хранит электронные версии произведений, а лишь предоставляет доступ к создаваемому пользователями каталогу ссылок на торрент-файлы, которые содержат только списки хеш-сумм

[Профиль] [ЛС]
Показать сообщения:    
Ответить на тему

Текущее время: Сегодня 18:30

Часовой пояс: GMT + 4



Вы не можете начинать темы
Вы не можете отвечать на сообщения
Вы не можете редактировать свои сообщения
Вы не можете удалять свои сообщения
Вы не можете голосовать в опросах
Вы не можете прикреплять файлы к сообщениям
Вы не можете скачивать файлы