Саботаж / Sabotage (Тибор Такач / Tibor Takacs) [1996, Канада, боевик, триллер, драма, BDRip 720p] DVO (R5) + MVO (РТР) + 2x AVO (Горчаков, Кашкин) + Ukr + Original Eng + Sub Rus, Eng

Ответить на тему
 
Автор Сообщение

user ®

Стаж: 7 лет 7 месяцев

Сообщений: 20008

Пост Пост: #1 от 06-Ноя-2015 01:18

[Цитировать]

Саботаж / Sabotage
«The Dark Heart Of The Black Ops Beats To A Secret Agenda»
Год выпуска: 1996
Страна: Канада
Производство: Apple Creek Productions, Applecreek Communications Inc.
Жанр: Боевик, триллер, драма
Продолжительность: 01:39:28
Перевод 1: Профессиональный (двухголосый закадровый) | R5 (Twister)
Перевод 2: Профессиональный (многоголосый закадровый) | РТР
Перевод 3: Авторский (одноголосый закадровый) | Горчаков
Перевод 4: Авторский (одноголосый закадровый) | Кашкин
Перевод 5: Профессиональный (двухголосый закадровый) | ТВi
Оригинальная аудиодорожка: Английский
Субтитры: Русские, английские
Режиссёр: Тибор Такач
В ролях: Марк Дакаскос, Кэрри-Энн Мосс, Тони Тодд, Грэм Грин, Джон Невилл, Джеймс Пёрселл, Сара Розен Фруитман, Ричард Култер, Хайди фон Паллеске, Джон Пол Янг и др.
Описание: Бывший морской пехотинец Майк Бишоп участвует в провальной операции по спасению заложников. Получив 7 ранений от руки профессионального убийцы, Бишоп чудом остается жив... Несколько лет спустя семья, в которой Бишоп работает телохранителем, становится жертвой того же убийцы. Объединившись со спецагентом ФБР, Бишоп вступает в смертельную схватку с суперкиллером, и ничьей в этой борьбе быть не может...


SbR
Сэмпл
Качество: BDRip 720p
Формат: MKV
Видео: MPEG-4 AVC: ~9500 kbps / 1280x720 / 23.976 fps / 16:9
Аудио: Russian: AC3 / 5.1 / 48 kHz / 384 kbps | R5 (Twister)
Аудио: Russian: AAC / 2.0 / 48 kHz / 160 kbps | РТР
Аудио: Russian: AC3 / 2.0 / 48 kHz / 192 kbps | Горчаков
Аудио: Russian: AC3 / 2.0 / 48 kHz / 192 kbps | Кашкин
Аудио: Ukrainian: AC3 / 2.0 / 48 kHz / 192 kbps | ТВi
Аудио: English: AC3 / 2.0 / 48 kHz / 192 kbps | Оригинальный | R2 (Filmax)
Аудио: English: AC3 / 5.1 / 48 kHz / 448 kbps | Оригинальный | R5 (Twister)
MediaInfoXP
GeneralUnique ID : 251223771242361379984312536497074835108 (0xBCFFF039864A2F48B51CE055DFBD8EA4)Complete name : E:\Sabotage.1996.720p.BluRay.4xRus.Ukr.Eng.x264-SbR.mkvFormat : MatroskaFormat version : Version 4 / Version 2File size : 7.89 GiBDuration : 1h 39mnOverall bit rate : 11.4 MbpsEncoded date : UTC 2015-11-03 12:06:14Writing application : mkvmerge v8.3.0 ('Over the Horizon') 64bitWriting library : libebml v1.3.1 + libmatroska v1.4.2DURATION : 01:39:28.032000000NUMBER_OF_FRAMES : 186501NUMBER_OF_BYTES : 143232768_STATISTICS_WRITING_APP : mkvmerge v8.3.0 ('Over the Horizon') 64bit_STATISTICS_WRITING_DATE_UTC : 2015-11-03 12:06:14_STATISTICS_TAGS : BPS DURATION NUMBER_OF_FRAMES NUMBER_OF_BYTES
VideoID : 1Format : AVCFormat/Info : Advanced Video CodecFormat profile : High@L4.1Format settings, CABAC : YesFormat settings, ReFrames : 9 framesCodec ID : V_MPEG4/ISO/AVCDuration : 1h 39mnNominal bit rate : 9 500 KbpsWidth : 1 280 pixelsHeight : 720 pixelsDisplay aspect ratio : 16:9Frame rate mode : ConstantFrame rate : 23.976 fpsColor space : YUVChroma subsampling : 4:2:0Bit depth : 8 bitsScan type : ProgressiveBits/(Pixel*Frame) : 0.430Writing library : x264 core 146 r0+2586 e393126 t_mod_Custom [8-bit@all X86_64]Encoding settings : cabac=1 / ref=9 / deblock=1:-3:-3 / analyse=0x3:0x133 / me=umh / subme=11 / psy=1 / fade_compensate=0.00 / psy_rd=1.00:0.05 / mixed_ref=1 / me_range=24 / chroma_me=1 / trellis=2 / 8x8dct=1 / cqm=0 / deadzone=21,11 / fast_pskip=0 / chroma_qp_offset=-3 / threads=6 / lookahead_threads=1 / sliced_threads=0 / nr=0 / decimate=1 / interlaced=0 / bluray_compat=0 / constrained_intra=0 / fgo=0 / bframes=11 / b_pyramid=2 / b_adapt=2 / b_bias=0 / direct=3 / weightb=1 / open_gop=0 / weightp=2 / keyint=250 / keyint_min=23 / scenecut=40 / intra_refresh=0 / rc=2pass / mbtree=0 / bitrate=9500 / ratetol=1.0 / qcomp=0.70 / qpmin=0:0:0 / qpmax=69:69:69 / qpstep=4 / cplxblur=20.0 / qblur=0.5 / ip_ratio=1.30 / pb_ratio=1.20 / aq=1:0.80 / aq-sensitivity=10.00 / aq-factor=1.00:1.00:1.00 / aq2=1:0.70 / aq2-sensitivity=15.00 / aq2-factor=1.00:1.00:1.00 / aq3=1:[0.65:0.65]:[0.65:0.65]:[0.65:0.65]:[0.65:0.65] / aq3-sensitivity=10.00 / aq3-factor=[1.00:1.00]:[1.00:1.00]:[1.00:1.00] / aq3-boundary=192:64:24Language : EnglishDefault : YesForced : NoColor range : LimitedMatrix coefficients : BT.709
Audio #1ID : 2Format : AC-3Format/Info : Audio Coding 3Mode extension : CM (complete main)Format settings, Endianness : BigCodec ID : A_AC3Duration : 1h 39mnBit rate mode : ConstantBit rate : 448 KbpsChannel(s) : 6 channelsChannel positions : Front: L C R, Side: L R, LFESampling rate : 48.0 KHzCompression mode : LossyStream size : 319 MiB (4%)Title : DVO R5 TwisterLanguage : RussianDefault : YesForced : No
Audio #2ID : 3Format : AACFormat/Info : Advanced Audio CodecFormat profile : LCCodec ID : A_AACDuration : 1h 39mnChannel(s) : 2 channelsChannel positions : Front: L RSampling rate : 48.0 KHzCompression mode : LossyDelay relative to video : 9msTitle : MVO РТР серый75 patchedLanguage : RussianDefault : NoForced : No
Audio #3ID : 4Format : AC-3Format/Info : Audio Coding 3Mode extension : CM (complete main)Format settings, Endianness : BigCodec ID : A_AC3Duration : 1h 39mnBit rate mode : ConstantBit rate : 192 KbpsChannel(s) : 2 channelsChannel positions : Front: L RSampling rate : 48.0 KHzCompression mode : LossyStream size : 137 MiB (2%)Title : Горчаков by ale_x2008Language : RussianDefault : NoForced : No
Audio #4ID : 5Format : AC-3Format/Info : Audio Coding 3Mode extension : CM (complete main)Format settings, Endianness : BigCodec ID : A_AC3Duration : 1h 39mnBit rate mode : ConstantBit rate : 192 KbpsChannel(s) : 2 channelsChannel positions : Front: L RSampling rate : 48.0 KHzCompression mode : LossyStream size : 137 MiB (2%)Title : Одноголосый закадровый, КашкинLanguage : RussianDefault : NoForced : No
Audio #5ID : 6Format : AC-3Format/Info : Audio Coding 3Mode extension : CM (complete main)Format settings, Endianness : BigCodec ID : A_AC3Duration : 1h 39mnBit rate mode : ConstantBit rate : 192 KbpsChannel(s) : 2 channelsChannel positions : Front: L RSampling rate : 48.0 KHzCompression mode : LossyStream size : 137 MiB (2%)Language : UkrainianDefault : NoForced : No
Audio #6ID : 7Format : AC-3Format/Info : Audio Coding 3Mode extension : CM (complete main)Format settings, Endianness : BigCodec ID : A_AC3Duration : 1h 39mnBit rate mode : ConstantBit rate : 192 KbpsChannel(s) : 2 channelsChannel positions : Front: L RSampling rate : 48.0 KHzCompression mode : LossyStream size : 137 MiB (2%)Title : R2 FilmaxLanguage : EnglishDefault : NoForced : No
Audio #7ID : 8Format : AC-3Format/Info : Audio Coding 3Mode extension : CM (complete main)Format settings, Endianness : BigCodec ID : A_AC3Duration : 1h 39mnBit rate mode : ConstantBit rate : 448 KbpsChannel(s) : 6 channelsChannel positions : Front: L C R, Side: L R, LFESampling rate : 48.0 KHzCompression mode : LossyStream size : 319 MiB (4%)Title : R5 TwisterLanguage : EnglishDefault : NoForced : No
Text #1ID : 9Format : UTF-8Codec ID : S_TEXT/UTF8Codec ID/Info : UTF-8 Plain TextLanguage : RussianDefault : NoForced : No
Text #2ID : 10Format : UTF-8Codec ID : S_TEXT/UTF8Codec ID/Info : UTF-8 Plain TextLanguage : EnglishDefault : NoForced : No
Menu00:00:00.000 : en:00:00:00.00000:08:20.208 : en:00:08:20.20800:21:19.445 : en:00:21:19.44500:36:09.793 : en:00:36:09.79300:51:31.171 : en:00:51:31.17101:07:56.990 : en:01:07:56.99001:21:55.536 : en:01:21:55.53601:32:16.990 : en:01:32:16.990
Скриншот с названием фильма Скриншоты
Скачать

Скачать торрент!

Как скачивать? · Что такое торрент? · Рейтинг и ограничения

Сайт не распространяет и не хранит электронные версии произведений, а лишь предоставляет доступ к создаваемому пользователями каталогу ссылок на торрент-файлы, которые содержат только списки хеш-сумм

[Профиль] [ЛС]
Показать сообщения:    
Ответить на тему

Текущее время: Сегодня 16:42

Часовой пояс: GMT + 4



Вы не можете начинать темы
Вы не можете отвечать на сообщения
Вы не можете редактировать свои сообщения
Вы не можете удалять свои сообщения
Вы не можете голосовать в опросах
Вы не можете прикреплять файлы к сообщениям
Вы не можете скачивать файлы