Во всем виноват Рио / Blame it on Rio (Стэнли Донен / Stanley Donen) [1984, США, мелодрама, комедия, BDRemux 1080p] MVO (5 канал) + DVO (НТВ+) + 2 x AVO (Андрей Гаврилов, Павел Санаев) + Sub Eng + Original Eng

Ответить на тему
 
Автор Сообщение

user ®

Стаж: 7 лет 7 месяцев

Сообщений: 20008

Пост Пост: #1 от 06-Ноя-2015 01:18

[Цитировать]

Во всем виноват Рио / Blame it on Rio
-Страна: США
Студия: Sherwood
Жанр: мелодрама, комедия
Год выпуска: 1984
Продолжительность: 01:39:57-Перевод 1: Профессиональный (многоголосый закадровый) 5 канал
Перевод 2: Профессиональный (двухголосый закадровый) НТВ+
Перевод 3: Авторский (одноголосый закадровый) Андрей Гаврилов
Перевод 4: Авторский (одноголосый закадровый) Павел Санаев
Cубтитры: английские
Оригинальная аудиодорожка: английский-Режиссер: Стэнли Донен / Stanley Donen-В ролях: Майкл Кейн, Джозеф Болонья, Валери Харпер, Мишель Джонсон, Деми Мур, Жозе Левгой, Лупе Джильотти, Майкл Мена, Тесси Калладу, Ана Лусия Лима-Описание: Двое друзей отправляются отдохнуть в Рио. Виктор привез с собой несовершеннолетнюю дочь Дженнифер, и Мэтью сопровождает дочь Николь. Колдовская атмосфера Рио, словно пропитанная эротикой и томными вожделениями, застает их врасплох.
Виктор охотится за каждой женщиной, а Мэтью, верный своей супруге скромно сопровождает его дочь в ее развлечениях. Но возбуждающие бразильские ритмы и откровенные танцы на лунном пляже делают свое дело. Не в силах устоять перед неослабевающим натиском юной обольстительницы, Мэтью вступает с ней в интимные отношения.
Однако, испугавшись своего поступка, он пытается любыми путями избегать Дженнифер, которая бесстрашно преследует любовника. Они снова и снова занимаются любовью, оказываясь в водовороте комических ситуаций и увлекая всех за собой.-Материал предоставлен: -Сэмпл | Imdb | Kinopoisk-Тип релиза: BDRemux 1080p
Контейнер: MKV-Видео: AVC High@L4.1 | 1920x1080 [16:9] | 28000 kbps | 23.976 fps
Аудио 1: Russian AC-3 | 2 ch | 48.0 KHz | 192 kbps [5 канал]
Аудио 2: Russian AC-3 | 2 ch | 48.0 KHz | 192 kbps [НТВ+]
Аудио 3: Russian AC-3 | 2 ch | 48.0 KHz | 192 kbps [Андрей Гаврилов]
Аудио 4: Russian AC-3 | 2 ch | 48.0 KHz | 192 kbps [Павел Санаев]
Аудио 5: English DTS-HD MA | 2 ch | 48.0 KHz | 2025 kbps | 24-bit (DTS Core: 2.0 / 48 kHz / 1509 kbps / 24-bit) [Original]
MediaInfo
General
Unique ID : 189770785165706524328651049982559513136 (0x8EC48615ECD623E9BC6C627E6F1BEA30)
Complete name : I:\H\Blame.It.on.Rio.1984.BDRemux.mkv
Format : Matroska
Format version : Version 4 / Version 2
File size : 21.5 GiB
Duration : 1h 39mn
Overall bit rate mode : Variable
Overall bit rate : 30.8 Mbps
Encoded date : UTC 2015-11-02 16:37:06
Writing application : mkvmerge v8.5.0 ('Vanishing Act') 32bit
Writing library : libebml v1.3.1 + libmatroska v1.4.2
DURATION : 01:39:30.012000000
NUMBER_OF_FRAMES : 2199
NUMBER_OF_BYTES : 54712
_STATISTICS_WRITING_APP : mkvmerge v8.5.0 ('Vanishing Act') 32bit
_STATISTICS_WRITING_DATE_UTC : 2015-11-02 16:37:06
_STATISTICS_TAGS : BPS DURATION NUMBER_OF_FRAMES NUMBER_OF_BYTES
Video
ID : 1
Format : AVC
Format/Info : Advanced Video Codec
Format profile : High@L4.1
Format settings, CABAC : Yes
Format settings, ReFrames : 4 frames
Codec ID : V_MPEG4/ISO/AVC
Duration : 1h 39mn
Bit rate mode : Variable
Maximum bit rate : 35.0 Mbps
Width : 1 920 pixels
Height : 1 080 pixels
Display aspect ratio : 16:9
Frame rate mode : Constant
Frame rate : 23.976 fps
Standard : NTSC
Color space : YUV
Chroma subsampling : 4:2:0
Bit depth : 8 bits
Scan type : Progressive
Language : English
Default : Yes
Forced : No
Color range : Limited
Color primaries : BT.709
Transfer characteristics : BT.709
Matrix coefficients : BT.709
Audio #1
ID : 2
Format : AC-3
Format/Info : Audio Coding 3
Mode extension : CM (complete main)
Format settings, Endianness : Big
Codec ID : A_AC3
Duration : 1h 39mn
Bit rate mode : Constant
Bit rate : 192 Kbps
Channel(s) : 2 channels
Channel positions : Front: L R
Sampling rate : 48.0 KHz
Compression mode : Lossy
Stream size : 137 MiB (1%)
Title : Многоголосый 5 канал
Language : Russian
Default : Yes
Forced : No
Audio #2
ID : 3
Format : AC-3
Format/Info : Audio Coding 3
Mode extension : CM (complete main)
Format settings, Endianness : Big
Codec ID : A_AC3
Duration : 1h 39mn
Bit rate mode : Constant
Bit rate : 192 Kbps
Channel(s) : 2 channels
Channel positions : Front: L R
Sampling rate : 48.0 KHz
Compression mode : Lossy
Stream size : 137 MiB (1%)
Title : Двухголосый НТВ+
Language : Russian
Default : No
Forced : No
Audio #3
ID : 4
Format : AC-3
Format/Info : Audio Coding 3
Mode extension : CM (complete main)
Format settings, Endianness : Big
Codec ID : A_AC3
Duration : 1h 39mn
Bit rate mode : Constant
Bit rate : 192 Kbps
Channel(s) : 2 channels
Channel positions : Front: L R
Sampling rate : 48.0 KHz
Compression mode : Lossy
Stream size : 137 MiB (1%)
Title : Авторский Андрей Гаврилов
Language : Russian
Default : No
Forced : No
Audio #4
ID : 5
Format : AC-3
Format/Info : Audio Coding 3
Mode extension : CM (complete main)
Format settings, Endianness : Big
Codec ID : A_AC3
Duration : 1h 39mn
Bit rate mode : Constant
Bit rate : 192 Kbps
Channel(s) : 2 channels
Channel positions : Front: L R
Sampling rate : 48.0 KHz
Compression mode : Lossy
Stream size : 137 MiB (1%)
Title : Авторский Павел Санаев
Language : Russian
Default : No
Forced : No
Audio #5
ID : 6
Format : DTS
Format/Info : Digital Theater Systems
Format profile : MA / Core
Mode : 16
Format settings, Endianness : Big
Codec ID : A_DTS
Duration : 1h 39mn
Bit rate mode : Variable
Bit rate : Unknown / 1 509 Kbps
Channel(s) : 2 channels
Channel positions : Front: L R
Sampling rate : 48.0 KHz
Bit depth : 24 bits
Compression mode : Lossless / Lossy
Title : Original
Language : English
Default : No
Forced : No
Text
ID : 7
Format : UTF-8
Codec ID : S_TEXT/UTF8
Codec ID/Info : UTF-8 Plain Text
Language : English
Default : Yes
Forced : No
Menu
00:00:00.000 : :Chapter 01
00:09:15.679 : :Chapter 02
00:17:51.904 : :Chapter 03
00:24:02.066 : :Chapter 04
00:31:48.698 : :Chapter 05
00:38:43.404 : :Chapter 06
00:47:03.070 : :Chapter 07
00:56:22.546 : :Chapter 08
01:05:46.151 : :Chapter 09
01:15:18.472 : :Chapter 10
01:26:33.438 : :Chapter 11
01:38:40.706 : :Chapter 12
Скриншоты
Скачать

Скачать торрент!

Как скачивать? · Что такое торрент? · Рейтинг и ограничения

Сайт не распространяет и не хранит электронные версии произведений, а лишь предоставляет доступ к создаваемому пользователями каталогу ссылок на торрент-файлы, которые содержат только списки хеш-сумм

[Профиль] [ЛС]
Показать сообщения:    
Ответить на тему

Текущее время: Сегодня 15:38

Часовой пояс: GMT + 4



Вы не можете начинать темы
Вы не можете отвечать на сообщения
Вы не можете редактировать свои сообщения
Вы не можете удалять свои сообщения
Вы не можете голосовать в опросах
Вы не можете прикреплять файлы к сообщениям
Вы не можете скачивать файлы