Квайдан: Повествование о загадочном и ужасном / Квайдан: Истории о привидениях / Kaidan / Ghost Stories (Масаки Кобаяси / Masaki Kobayashi) [1964, Япония, ужасы, HDRip] [Original Cut] DVO (SomeWax) + Sub Rus, Eng + original

Ответить на тему
 
Автор Сообщение

user ®

Стаж: 13 лет

Сообщений: 15071

Пост Пост: #1 от 05-Ноя-2015 12:54

[Цитировать]

Квайдан: Повествование о загадочном и ужасном / / Kaidan
Страна: Япония
Жанр: ужасы
Год выпуска: 1964
Продолжительность: 03:03:15
Перевод: Профессиональный (двухголосый закадровый) - SomeWax
Cубтитры: русские полные, руские на места без перевода, английские
Оригинальная аудиодорожка: японский

Режиссер: Масаки Кобаяси / Masaki Kobayashi
В ролях: Рентаро Микуни, Мичийо Аратама, Мисако Ватанабе, Тацуя Накадаи, Кейко Киши, Кацуо Накамура, Такаси Симура, Йойчи Хаяси, Тецуро Тамба, Ганемон Накамура
Описание: Картина основана на историях из собрания японских народных сказок Лафкадио Хирна и состоит из четырёх не связанных друг с другом историй: «Черные волосы», «Снежная женщина», «Сказание о Хойчи безухом», «В чашке чая».
Качество видео: [url=http://***/forum/viewtopic.php?t=5106711]HDRip[/url]
Формат видео: AVI
Видео: 720x304 (2.37:1), 23.976 fps, XviD build 73 ~1507 kbps avg, 0.29 bit/pixel
Аудио: 48 kHz, AC3 Dolby Digital, 2/0 (L,R) ch, ~192 kbps - двухголосый
Аудио: 48 kHz, AC3 Dolby Digital, 1 ch, ~192 kbps - оригинал (отдельным файлом)


Сравнение
[url=http://***/forum/viewtopic.php?t=2282974]http://***/forum/viewtopic.php?t=2282974[/url]
http://screenshotcomparison.com/comparison/149322
[url=http://***/forum/viewtopic.php?t=476888]http://***/forum/viewtopic.php?t=476888[/url] - укороченная версия
MediaInfo
Общее
Полное имя : H:\Kaidan.1964.hdrip_[2.18[_[teko]\Kaidan.1964.hdrip_[2.18].avi
Формат : AVI
Формат/Информация : Audio Video Interleave
Профиль формата : OpenDML
Размер файла : 2,18 Гбайт
Продолжительность : 3 ч. 3 м.
Общий поток : 1706 Кбит/сек
Программа кодирования : VirtualDubMod 1.5.10.3 | www.virtualdub-fr.org || (build 2550/release)
Библиотека кодирования : VirtualDubMod build 2550/release
Видео
Идентификатор : 0
Формат : MPEG-4 Visual
Профиль формата : Advanced Simple@L5
Параметр BVOP формата : 1
Параметр QPel формата : Нет
Параметр GMC формата : Без точки перехода
Параметр матрицы формата : Выборочная
Идентификатор кодека : XVID
Идентификатор кодека/Подсказка : XviD
Продолжительность : 3 ч. 3 м.
Битрейт : 1502 Кбит/сек
Ширина : 720 пикселей
Высота : 304 пикселя
Соотношение сторон : 2,35:1
Частота кадров : 23,976 кадра/сек
Цветовое пространство : YUV
Субдискретизация насыщенности : 4:2:0
Битовая глубина : 8 бит
Тип развёртки : Прогрессивная
Метод сжатия : С потерями
Бит/(Пиксели*Кадры) : 0.286
Размер потока : 1,92 Гбайт (88%)
Библиотека кодирования : XviD 73
Аудио
Идентификатор : 1
Формат : AC-3
Формат/Информация : Audio Coding 3
Расширение режима : CM (complete main)
Параметр Endianness формата : Big
Идентификатор кодека : 2000
Продолжительность : 3 ч. 3 м.
Вид битрейта : Постоянный
Битрейт : 192 Кбит/сек
Каналы : 2 канала
Расположение каналов : Front: L R
Частота : 48,0 КГц
Битовая глубина : 16 бит
Метод сжатия : С потерями
Размер потока : 252 Мбайт (11%)
Выравнивание : Разделение по промежуткам
Продолжительность промежутка : 42 мс. (1,00 видеокадр)
Время предзагрузки промежутка : 500 мс.
Скриншоты Релиз группы:
[url=http://***/forum/viewtopic.php?t=1677970] [/url]
--
Скачать

Скачать торрент! Квайдан: Повествование о загадочном и ужасном / Квайдан: Истории о привидениях / Kaidan / Ghost Stories (Масаки Кобаяси / Masaki Kobayashi) [1964, Япония, ужасы, HDRip] [Original Cut] DVO (SomeWax) + Sub Rus, Eng + original

Как скачивать? · Что такое торрент? · Рейтинг и ограничения

Сайт не распространяет и не хранит электронные версии произведений, а лишь предоставляет доступ к создаваемому пользователями каталогу ссылок на торрент-файлы, которые содержат только списки хеш-сумм

[Профиль] [ЛС]
Показать сообщения:    
Ответить на тему

Текущее время: Сегодня 12:21

Часовой пояс: GMT + 4



Вы не можете начинать темы
Вы не можете отвечать на сообщения
Вы не можете редактировать свои сообщения
Вы не можете удалять свои сообщения
Вы не можете голосовать в опросах
Вы не можете прикреплять файлы к сообщениям
Вы не можете скачивать файлы