Одиссей / Ulysses (Питер Чои / Peter Choi, Орландо Корради / Orlando Corradi) [1998, Италия, приключения, семейный, мультфильм, DVDRip] MVO

Ответить на тему
 
Автор Сообщение

user ®

Стаж: 9 лет 1 месяц

Сообщений: 19805

Пост Пост: #1 от 04-Ноя-2015 12:06

[Цитировать]

Одиссей / Ulysses
Страна: Италия
Жанр: приключения, семейный, мультфильм
Продолжительность: 01:28:56
Год выпуска: 1998
Перевод: Профессиональный (многоголосый закадровый)
Русские субтитры: нет

Режиссёр: Питер Чои / Peter Choi, Орландо Корради / Orlando Corradi
Описание: Царь Итаки Одиссей впадает в немилость к богам после того, как помогает грекам обманом завладеть Троей. Лишенный поддержки бога морей, он вынужден долгие годы добираться до родного острова. В этом нелегком путешествии его ждет множество опасных приключений. Он попадет на остров циклопов и его корабли подвергнутся проверке на прочность богом ветров Эолом.
Качество: [url=http://***/forum/viewtopic.php?t=4968030]DVDRip[/url]
Формат: AVI
Видео: 688x416 (1.65:1), 25 fps, XviD build 73 ~2139 kbps avg, 0.30 bit/pixel
Аудио: 48 kHz, AC3 Dolby Digital, 2/0 (L,R) ch, ~192 kbps
Субтитры: отсутствуют


Подробные технические данные
ОбщееПолное имя : H:\Ulysses.1998.dvdrip_[1.46]_[teko].aviФормат : AVIФормат/Информация : Audio Video InterleaveРазмер файла : 1,45 ГбайтПродолжительность : 1 ч. 28 м.Общий поток : 2342 Кбит/секПрограмма кодирования : VirtualDubMod 1.5.10.3 | www.virtualdub-fr.org || (build 2550/release)Библиотека кодирования : VirtualDubMod build 2550/release
ВидеоИдентификатор : 0Формат : MPEG-4 VisualПрофиль формата : Advanced Simple@L5Параметр BVOP формата : 1Параметр QPel формата : НетПараметр GMC формата : Без точки переходаПараметр матрицы формата : ВыборочнаяИдентификатор кодека : XVIDИдентификатор кодека/Подсказка : XviDПродолжительность : 1 ч. 28 м.Битрейт : 2140 Кбит/секШирина : 688 пикселейВысота : 416 пикселейСоотношение сторон : 1,654Частота кадров : 25,000 кадров/секЦветовое пространство : YUVСубдискретизация насыщенности : 4:2:0Битовая глубина : 8 битТип развёртки : ПрогрессивнаяМетод сжатия : С потерямиБит/(Пиксели*Кадры) : 0.299Размер потока : 1,33 Гбайт (91%)Библиотека кодирования : XviD 73
АудиоИдентификатор : 1Формат : AC-3Формат/Информация : Audio Coding 3Расширение режима : CM (complete main)Параметр Endianness формата : BigИдентификатор кодека : 2000Продолжительность : 1 ч. 28 м.Вид битрейта : ПостоянныйБитрейт : 192 Кбит/секКаналы : 2 каналаРасположение каналов : Front: L RЧастота : 48,0 КГцБитовая глубина : 16 битМетод сжатия : С потерямиРазмер потока : 122 Мбайт (8%)Выравнивание : Разделение по промежуткамПродолжительность промежутка : 40 мс. (1,00 видеокадр)Время предзагрузки промежутка : 500 мс.
Скриншоты Релиз группы:
[url=http://***/forum/viewtopic.php?t=1677970] [/url]
--
Скачать

Скачать торрент!

Как скачивать? · Что такое торрент? · Рейтинг и ограничения

Сайт не распространяет и не хранит электронные версии произведений, а лишь предоставляет доступ к создаваемому пользователями каталогу ссылок на торрент-файлы, которые содержат только списки хеш-сумм

загрузка...
[Профиль] [ЛС]
Показать сообщения:    
Ответить на тему

Текущее время: Сегодня 05:41

Часовой пояс: GMT + 4



Вы не можете начинать темы
Вы не можете отвечать на сообщения
Вы не можете редактировать свои сообщения
Вы не можете удалять свои сообщения
Вы не можете голосовать в опросах
Вы не можете прикреплять файлы к сообщениям
Вы не можете скачивать файлы